Welcome Guest ( Log In | Register )

 
ОтветитьСоздать новую тему
> The Putrefying - Deformed Creation (2014), Technical Death Metal
post Jan 13 2018, 12:27:42
Post #1

Аннигилятор пивА
Group Icon
Group: V.I.P
Posts: 45,729
Releases: 13651
From: Koenigsberg - TILZIT
On Forums: 11 years 8 months
Thanks: 302087 time(s)
Russian Federation


(IMG:https://metalarea.org/images/audiocovers/2018_Jan/acov_tid300465_thumb.jpg)

*Artist: The Putrefying
*Album: Deformed Creation
*Year: 2014
*Genre: Technical Death Metal
*Country: Brazil (IMG:https://metalarea.org/forum/style_images/flags/Brazil.png)
*Format: mp3@CBR320kbps
*Size: 67MB

Tracklist:
1. Putrid 01:11
2. Insane Necrophiliac 04:00
3. Corpse Intinerant 04:17
4. Deformed Creation 03:40
5. Escarment 03:56
6. Internal Morgue 04:17
7. Murderous Greed 03:13
8. Unclean Interior 04:14
******************************
Total playing time: 28:48




Extended info


Technical info
(IMG:https://metalarea.org/images/spectrogram/2018_Jan/2ffa6ff8a086cf6176570847b4f10a8a.png)
Input File: 07 - Murderous Greed.mp3
Channels : 2
Sample Rate : 44100
Precision : 16-bit
Duration : 00:03:13.35 = 8526867 samples = 14501.5 CDDA sectors
File Size : 7.86M
Bit Rate : 325k
Sample Encoding: MPEG audio (layer I, II or III)
Comments :
Title=Murderous Greed
Artist=The Putrefying
Album=Deformed Creation
Tracknumber=07/08
Year=2014
Genre=Technical Death Metal



Register


Вернуться к началу страницы
  Insert nick Quick quote
+Цитировать сообщение

ОтветитьСоздать новую тему
1 User(s) are reading this topic (1 Guests and 0 Anonymous Users)
0 Members:

 



- Lo-Fi Version Support form
Copyrights and abuse reports form
Time is now: 19th February 2018 - 15:00:18