Welcome Guest ( Log In | Register )

> Dutch Rosenberg Theater - Curtains (2018), Progressive Metal
post Jan 13 2018, 12:48:36
Post #1

Serial Uploader
Group Icon
Group: V.I.P
Posts: 32,532
Releases: 30835
From: Lithuania
On Forums: 9 years 11 months
Thanks: 354031 time(s)
Lithuania


(IMG:http://metalarea.org/images/audiocovers/2018_Jan/acov_tid300466_thumb.jpg)

*Artist: Dutch Rosenberg Theater
*Album: Curtains
*Year: 2018
*Genre: Progressive Metal
*Country: United States (IMG:http://metalarea.org/forum/style_images/flags/United%20States.png)
*Format: mp3@CBR320kbps
*Size: 142MB

Tracklist:
01. Waiting For The Bass Player To Get On Stage
02. N'est Pas
03. Act III
04. Monte Carlo
05. 11 Weeks To Gila Bend
06. What Is The Deadliest Weapon On The Face Of The Earth?
07. Act VI
08. Any Earthen Voyage
09. Act VII
10. She's A Real Humdinger
11. Act VIII
12. Everything's Coming Up Roses!
13. Act IX
14. When The Lake Is Calm
15. Act X
16. My Violent Friend
17. Act XI
18. If You're Cryptic
19. Act XII
20. A.C.R.O.N.Y.M.
21. Act XIII
22. Nonetheless
******************************
Total playing time: 1:01:56




Technical info
(IMG:http://metalarea.org/images/spectrogram/2018_Jan/0f5664cf7a9704be9e9c638f26293b80.png)
Input File: 02. N\'est Pas.mp3
Channels : 2
Sample Rate : 44100
Precision : 16-bit
Duration : 00:02:54.65 = 7701977 samples = 13098.6 CDDA sectors
File Size : 7.03M
Bit Rate : 322k
Sample Encoding: MPEG audio (layer I, II or III)
Comments :
Title=N'est Pas
Artist=Dutch Rosenberg Theater
Album=Curtains
Tracknumber=2/22
Year=2018
Genre=17
Discnumber=1/1



Register


Thanks:
Вернуться к началу страницы
  Insert nick Quick quote
+Цитировать сообщение
 
Создать новую тему
Replies (1 - 2)
post Jan 13 2018, 21:16:22
Post #2

Три Литра
***
Group: Завсегдатай
Posts: 281
Releases: 0
From: Сибирь
On Forums: 7 years 2 months
Thanks: 76 time(s)
Russian Federation


Кто их к прогрессиву отнёс?
Вернуться к началу страницы
  Insert nick Quick quote
+Цитировать сообщение
post Jan 13 2018, 22:00:05
Post #3

Аннигилятор пивА
Group Icon
Group: V.I.P
Posts: 46,693
Releases: 14016
From: Koenigsberg - TILZIT
On Forums: 11 years 11 months
Thanks: 310896 time(s)
Russian Federation


прога тут как такового нет, Dutch Rosenberg это мультиинструменталист и у него есть свой муз-театр где играют во многих жанрах, на данной антологии представлены композиции в самых разных направлениях рок музыки, от альтернативы, рока, панка, харда до хэви и трэша, короче сборник всякого, писня того, писня сего, вот самые клевые трэки




Вернуться к началу страницы
  Insert nick Quick quote
+Цитировать сообщение

ОтветитьСоздать новую тему
1 User(s) are reading this topic (1 Guests and 0 Anonymous Users)
0 Members:

 



- Lo-Fi Version Support form
Copyrights and abuse reports form
Time is now: 26th May 2018 - 14:55:31