Welcome Guest ( Log In | Register )

> Releases Upload / Добавление релизов

Добавить релиз тут / Click here to add release
Рекомендованные обменники / Recommended file shares

 
ОтветитьСоздать новую тему
> Branded By Pain - Give Me Strength [ep] (2017), Thrash Metal/Hardcore
post Jan 13 2018, 13:03:24
Post #1

Serial Uploader
Group Icon
Group: V.I.P
Posts: 31,397
Releases: 29726
From: Lithuania
On Forums: 9 years 8 months
Thanks: 341486 time(s)
Lithuania


(IMG:http://metalarea.org/images/audiocovers/2018_Jan/acov_tid300467_thumb.jpg)

*Artist: Branded By Pain
*Album: Give Me Strength [ep]
*Year: 2017
*Genre: Thrash Metal/Hardcore
*Country: Canada (IMG:http://metalarea.org/forum/style_images/flags/Canada.png)
*Format: mp3@CBR320kbps
*Size: 54MB

Tracklist:
01. ADHD 05:12
02. Lost 04:43
03. Stand Tall 05:04
04. Toxic Veil 03:50
05. Through The Truth 04:51
******************************
Total playing time: 23:40

(IMG:http://metalarea.org/images/myspace.png)




Technical info
(IMG:http://metalarea.org/images/spectrogram/2018_Jan/829414df788ca959fa7dc6c111cc393b.png)
Input File: 02. Lost.mp3
Channels : 2
Sample Rate : 48000
Precision : 16-bit
Duration : 00:04:43.71 = 13617936 samples ~ 21278 CDDA sectors
File Size : 11.3M
Bit Rate : 320k
Sample Encoding: MPEG audio (layer I, II or III)
Comments :
Title=Lost
Artist=Branded by Pain
Album=Give Me Strength
Tracknumber=2/5
Year=2017



Register


Вернуться к началу страницы
  Insert nick Quick quote
+Цитировать сообщение

ОтветитьСоздать новую тему
1 User(s) are reading this topic (1 Guests and 0 Anonymous Users)
0 Members:

 



- Lo-Fi Version Support form
Copyrights and abuse reports form
Time is now: 19th February 2018 - 14:59:43