Welcome Guest ( Log In | Register )

 
Reply to this topicStart new topic
> Aramas - Aramas [ep] (2017), Black Metal
post Jan 13 2018, 13:15:02
Post #1

Serial Uploader
Group Icon
Group: V.I.P
Posts: 32,939
Releases: 31231
From: Lithuania
On Forums: 10 years 2 months
Thanks: 357623 time(s)
Lithuania


(IMG:https://metalarea.org/images/audiocovers/2018_Jan/acov_tid300468_thumb.jpg)

*Artist: Aramas
*Album: Aramas [ep]
*Year: 2017
*Genre: Black Metal
*Country: Italy (IMG:https://metalarea.org/forum/style_images/flags/Italy.png)
*Format: mp3@CBR320kbps
*Size: 64MB

Tracklist:
01. Realtà Industriale 05:33
02. Gli Ultimi Momenti 04:23
03. Damnatio Memoriae 05:46
04. Peste Lo Colga 04:10
05. Eterno Momento 08:29
******************************
Total playing time: 28:21


(IMG:https://metalarea.org/images/youtube.png)

Technical info
(IMG:https://metalarea.org/images/spectrogram/2018_Jan/06997094a5a054887c9968d2e1f95fad.png)
Input File: 02. Gli Ultimi Momenti.mp3
Channels : 2
Sample Rate : 44100
Precision : 16-bit
Duration : 00:04:23.16 = 11605312 samples = 19736.9 CDDA sectors
File Size : 10.5M
Bit Rate : 320k
Sample Encoding: MPEG audio (layer I, II or III)
Comments :
Title=Gli Ultimi Momenti
Artist=Aramas
Album=Aramas
Tracknumber=2/5
Year=2018



Register


Go to the top of the page
  Insert nick Quick quote
+Quote Post

Reply to this topicStart new topic
1 User(s) are reading this topic (1 Guests and 0 Anonymous Users)
0 Members:

 



- Lo-Fi Version Support form
Copyrights and abuse reports form
Time is now: 19th August 2018 - 02:26:24