Welcome Guest ( Log In | Register )

> El Dragon - Vikingos! (1994), Heavy/Power Metal (D7)
post Jan 13 2018, 13:59:13
Post #1

Serial Uploader
Group Icon
Group: V.I.P
Posts: 32,451
Releases: 30751
From: Lithuania
On Forums: 9 years 11 months
Thanks: 353307 time(s)
Lithuania


(IMG:http://metalarea.org/images/audiocovers/2018_Jan/acov_tid300470_thumb.jpg)

*Artist: El Dragon
*Album: Vikingos!
*Year: 1994
*Genre: Heavy/Power Metal
*Country: Argentina (IMG:http://metalarea.org/forum/style_images/flags/Argentina.png)
*Format: mp3@CBR320kbps
*Size: 87MB

Tracklist:
01. Vikingos 04:22
02. Padre Nuestro 05:13
03. Cólera 05:12
04. Occidentalmente 04:06
05. Argentina 05:02
06. Antihéroe 04:20
07. Espada Mortal 04:40
08. Marcado A Fuego 05:06
******************************
Total playing time: 38:01


(IMG:http://metalarea.org/images/youtube.png)

Technical info
(IMG:http://metalarea.org/images/spectrogram/2018_Jan/3011a93855e9f8bbb220bf431789001b.png)
Input File: 02. Padre Nuestro.mp3
Channels : 2
Sample Rate : 44100
Precision : 16-bit
Duration : 00:05:13.27 = 13815031 samples = 23495 CDDA sectors
File Size : 12.6M
Bit Rate : 322k
Sample Encoding: MPEG audio (layer I, II or III)
Comments :
Title=Padre Nuestro
Artist=El DragГіn
Album=Vikingos!
Tracknumber=2/8
Year=1994
Genre=Heavy Metal



Register


Thanks:
(2) Rosen, varlam4,
Вернуться к началу страницы
  Insert nick Quick quote
+Цитировать сообщение
 
Создать новую тему
Replies (1 - 3)
post Jan 17 2018, 19:38:20
Post #2

Два Литра
**
Group: Завсегдатай
Posts: 142
Releases: 0
From: Kiev
On Forums: 9 years 4 months
Thanks: 33 time(s)
Ukraine


Н-да ...
Вернуться к началу страницы
  Insert nick Quick quote
+Цитировать сообщение
post Jan 27 2018, 17:57:59
Post #3

Перевозчик
**************
Group: Металариец
Posts: 2,697
Releases: 0
On Forums: 9 years 10 months
Thanks: 543 time(s)
Russian Federation


Эль мьерда.
Вернуться к началу страницы
  Insert nick Quick quote
+Цитировать сообщение
post Feb 7 2018, 16:20:45
Post #4

No More Tears
**************
Group: Металариец
Posts: 4,929
Releases: 115
From: Тбилиси, Грузия
On Forums: 11 years 9 months
Thanks: 2333 time(s)
Georgia


Ну понятно, такие новые музыканты молодые, еще не слушали много даже в том стиле, в котором играют, иначе, по моему, они такую скукоту сочинять или играть не стали бы.
Сверхудручающая скукота.
Вернуться к началу страницы
  Insert nick Quick quote
+Цитировать сообщение

ОтветитьСоздать новую тему
1 User(s) are reading this topic (1 Guests and 0 Anonymous Users)
0 Members:

 



- Lo-Fi Version Support form
Copyrights and abuse reports form
Time is now: 22nd May 2018 - 18:42:26