Welcome Guest ( Log In | Register )

> Releases Upload / Добавление релизов

Добавить релиз тут / Click here to add release
Рекомендованные обменники / Recommended file shares

 
ОтветитьСоздать новую тему
> Tetrachromat - Tetrachromat (2018), Instrumental/Experimental/Progressive Metal
post Jan 13 2018, 14:16:26
Post #1

Serial Uploader
Group Icon
Group: V.I.P
Posts: 31,397
Releases: 29726
From: Lithuania
On Forums: 9 years 8 months
Thanks: 341486 time(s)
Lithuania


(IMG:https://metalarea.org/images/audiocovers/2018_Jan/acov_tid300471_thumb.jpg)

*Artist: Tetrachromat
*Album: Tetrachromat
*Year: 2018
*Genre: Instrumental/Experimental/Progressive Metal
*Country: United States (IMG:https://metalarea.org/forum/style_images/flags/United%20States.png)
*Format: mp3@CBR320kbps
*Size: 133MB

Tracklist:
01. Watergarden 02:27
02. Mindbody 04:47
03. Floralfauna 03:39
04. Vostok 06:25
05. Slowdive 03:14
06. Chrysanthemum 06:04
07. Kodama 05:01
08. Startapper 06:11
09. Coldpress 02:08
10. Rio 05:11
11. Filament 03:51
12. Aubade 04:44
13. Royalroom 02:52
******************************
Total playing time: 56:34




Technical info
(IMG:https://metalarea.org/images/spectrogram/2018_Jan/6c4267d1132041b7503683157aaa83d3.png)
Input File: 02. Mindbody.mp3
Channels : 2
Sample Rate : 44100
Precision : 16-bit
Duration : 00:04:47.77 = 12690437 samples = 21582.4 CDDA sectors
File Size : 11.7M
Bit Rate : 326k
Sample Encoding: MPEG audio (layer I, II or III)
Comments :
Title=Mindbody
Artist=Tetrachromat
Album=Tetrachromat
Tracknumber=2
Year=2018



Register


Thanks:
Вернуться к началу страницы
  Insert nick Quick quote
+Цитировать сообщение

ОтветитьСоздать новую тему
1 User(s) are reading this topic (1 Guests and 0 Anonymous Users)
0 Members:

 



- Lo-Fi Version Support form
Copyrights and abuse reports form
Time is now: 19th February 2018 - 14:57:36