Welcome Guest ( Log In | Register )

 
ОтветитьСоздать новую тему
> Disfigured Corpse - 25 Let Znetvořené Mrtvoly [compilation] (2016), Death Metal/Grindcore
post Jan 13 2018, 14:32:44
Post #1

Serial Uploader
Group Icon
Group: V.I.P
Posts: 32,451
Releases: 30751
From: Lithuania
On Forums: 9 years 11 months
Thanks: 353307 time(s)
Lithuania


(IMG:http://metalarea.org/images/audiocovers/2018_Jan/acov_tid300472_thumb.jpg)

*Artist: Disfigured Corpse
*Album: 25 Let Znetvořené Mrtvoly [compilation]
*Year: 2016
*Genre: Death Metal/Grindcore
*Country: Czech Republic (IMG:http://metalarea.org/forum/style_images/flags/Czech%20Republic.png)
*Format: mp3@VBR259kbps
*Size: 63MB

Tracklist:
01. I Feel Dislike (Contrastic Cover) 01:12
02. Kladivo Na Čarodějnice (Törr Cover) 04:41
03. Straight To Hell (Plastic Grave Cover) 02:31
04. Orthodox (Krabathor Cover) 03:02
05. Protest (Debustrol Cover) 03:31
06. Regressive Metamorphoses In The Parenchyma (Malignant Tumor Cover) 01:10
07. Děda (Burinky Ii Cover) 02:16
08. Breakthrough Situation (Testimony Cover) 03:23
09. Nice To Eat You (Fleshless Cover) 03:43
10. Hřbitov (Root Cover) 03:48
11. Dům Na Demolici (H.N.F. Cover) 02:13
******************************
Total playing time: 31:30

(IMG:http://metalarea.org/images/myspace.png)

(IMG:http://metalarea.org/images/youtube.png)

Extended info
Scene CD-rip


Technical info
(IMG:http://metalarea.org/images/spectrogram/2018_Jan/53af01294d744210ef624d2237a99729.png)
Input File: 02-disfigured_corpse_-_kladivo_na_carodejnice-fkk.mp3
Channels : 2
Sample Rate : 44100
Precision : 16-bit
Duration : 00:04:41.95 = 12433819 samples = 21146 CDDA sectors
File Size : 9.37M
Bit Rate : 266k
Sample Encoding: MPEG audio (layer I, II or III)
Comments :
Title=Kladivo Na Carodejnice
Artist=Disfigured Corpse
Album=25 Let Znetvorene Mrtvoly
Tracknumber=02/11
Year=2016
Genre=Death Metal
Discnumber=1/1



Register


Вернуться к началу страницы
  Insert nick Quick quote
+Цитировать сообщение

ОтветитьСоздать новую тему
1 User(s) are reading this topic (1 Guests and 0 Anonymous Users)
0 Members:

 



- Lo-Fi Version Support form
Copyrights and abuse reports form
Time is now: 22nd May 2018 - 18:46:24