Welcome Guest ( Log In | Register )

 
ОтветитьСоздать новую тему
> Festering Viscera Chunks & Embedded Flesh & Brake Fluid Injection - Festering Viscera Chunks/Embedded Flesh/Brake Fluid Injection [split] (2017), Goregrind/Noisegrind | Goregrind/Noisegrind | Brutal Death Metal
post Jan 13 2018, 15:08:03
Post #1

Serial Uploader
Group Icon
Group: V.I.P
Posts: 32,451
Releases: 30751
From: Lithuania
On Forums: 9 years 11 months
Thanks: 353307 time(s)
Lithuania


(IMG:http://metalarea.org/images/audiocovers/2018_Jan/acov_tid300473_thumb.jpg)

*Artist: Festering Viscera Chunks & Embedded Flesh & Brake Fluid Injection
*Album: Festering Viscera Chunks/Embedded Flesh/Brake Fluid Injection [split]
*Year: 2017
*Genre: Goregrind/Noisegrind | Goregrind/Noisegrind | Brutal Death Metal
*Country: United States (IMG:http://metalarea.org/forum/style_images/flags/United%20States.png) | United States (IMG:http://metalarea.org/forum/style_images/flags/United%20States.png) | United States (IMG:http://metalarea.org/forum/style_images/flags/United%20States.png)
*Format: mp3@CBR320kbps
*Size: 59MB

Tracklist:
Festering Viscera Chunks:
01. Untitled #1 01:26
02. Untitled #2 00:57
03. Untitled #3 00:55
04. Untitled #4 00:39
05. Untitled #5 00:44
06. Untitled #6 01:04
07. Untitled #7 00:49
08. Untitled #8 00:35
09. Untitled #9 00:33
Embedded Flesh:
10. Putting Her Head Under Boiling Hot Magnesium Citrate 01:16
11. Bloated Serial Rapist (From Uzbekistan) 01:18
12. Dysfunctional Desire Of Yeast 01:35
13. Do It, You Won't. 02:12
14. Headache-Induced Lap Dance 02:11
Brake Fluid Injection:
15. Jon Gruden's 100 Million Dollar Haircut 01:57
16. Kevin Durant Sucks At Rocket League 01:12
17. Obligatory Manti Te'o Girlfriend Joke 02:03
18. The 2017 Cleveland Browns 01:04
19. Dale Earnhardt Jr. Won A Race Once 01:23
******************************
Total playing time: 23:53




Technical info
(IMG:http://metalarea.org/images/spectrogram/2018_Jan/2b059be2ce61c980718900f3f00e5921.png)
Input File: 02. Untitled #2.mp3
Channels : 2
Sample Rate : 44100
Precision : 16-bit
Duration : 00:00:57.81 = 2549597 samples = 4336.05 CDDA sectors
File Size : 2.55M
Bit Rate : 353k
Sample Encoding: MPEG audio (layer I, II or III)
Comments :
Title=FxVxC - Untitled #2
Artist=Brake Fluid Injection
Album=[2018] FxVxC + Embedded Flesh + Brake Fluid Injection
Tracknumber=2
Year=2017



Register


Thanks:
Вернуться к началу страницы
  Insert nick Quick quote
+Цитировать сообщение

ОтветитьСоздать новую тему
1 User(s) are reading this topic (1 Guests and 0 Anonymous Users)
0 Members:

 



- Lo-Fi Version Support form
Copyrights and abuse reports form
Time is now: 22nd May 2018 - 18:44:43