Welcome Guest ( Log In | Register )

> Malamorte - Satan Goes To Heaven To Destroy The Kingdom Of God (2017), Heavy/Black Metal
post Jan 13 2018, 15:24:26
Post #1

satanath@mail.ru
Group Icon
Group: Moderation team
Posts: 5,887
Releases: 644
From: Satan-Petersburg
On Forums: 8 years 1 week
Thanks: 14822 time(s)
Russian Federation


(IMG:http://metalarea.org/images/audiocovers/2018_Jan/acov_tid300474_thumb.jpg)

*Artist: Malamorte
*Album: Satan Goes To Heaven To Destroy The Kingdom Of God
*Year: 2017
*Genre: Heavy/Black Metal
*Country: Italy (IMG:http://metalarea.org/forum/style_images/flags/Italy.png)
*Format: mp3@CBR320kbps
*Size: 92MB

Tracklist:
01. Intro 00:53
02. Thorn in the Flesh 04:40
03. Waiting for the End of Christianity 04:17
04. Unholy Cult 05:26
05. Satan Goes to Heaven to Destroy the Kingdom of God 04:27
06. Intramezzo 01:42
07. Blasphemies for the Horned God 04:56
08. Ode to Damnation 04:16
09. Aut Satan Aut Nihil 05:50
10. Outro 06:55
******************************
Total playing time: 43:22



Extended info
CD Rip. Label: Pure Steel Records (catalog - PSRCD147)

Malamorte is the Occult Satanic-Horror heavy/black metal side project of Alessandro Nunziati (Lord Vampyr, Cain, Shadowreign, Nailed God, ex-Theatres des Vampires)... Mercyful Fate & King Diamond worship!

Exclusively for MetalArea


Technical info
(IMG:http://metalarea.org/images/spectrogram/2018_Jan/66b7f9fe5ac155813a1079f50fe82afb.png)
Input File: 02 Thorn in the flesh.mp3
Channels : 2
Sample Rate : 44100
Precision : 16-bit
Duration : 00:04:40.45 = 12367845 samples = 21033.8 CDDA sectors
File Size : 11.2M
Bit Rate : 320k
Sample Encoding: MPEG audio (layer I, II or III)
Comments :
Title=Thorn in the flesh
Artist=Malamorte
Album=Satan Goes to Heaven to Destroy the Kingdom of God
Tracknumber=2
Year=2017
Genre=Heavy Metal



Register


Go to the top of the page
  Insert nick Quick quote
+Quote Post
 
Start new topic
Replies (1 - 1)
post Jan 13 2018, 18:02:34
Post #2

Девять Литров
*********
Group: Металариец
Posts: 986
Releases: 14
On Forums: 10 years 1 month
Thanks: 809 time(s)
Russian Federation


Go to the top of the page
  Insert nick Quick quote
+Quote Post

Reply to this topicStart new topic
1 User(s) are reading this topic (1 Guests and 0 Anonymous Users)
0 Members:

 



- Lo-Fi Version Support form
Copyrights and abuse reports form
Time is now: 21st November 2018 - 13:04:16