Welcome Guest ( Log In | Register )

> Releases Upload / Добавление релизов

Добавить релиз тут / Click here to add release
Рекомендованные обменники / Recommended file shares

> Häxaldr - Necromantic Bloodshed (2018), Raw Black Metal
post Jan 13 2018, 15:24:26
Post #1

Семь Литров
*******
Group: Металариец
Posts: 738
Releases: 154
On Forums: 7 years 4 months
Thanks: 1842 time(s)
Albania


(IMG:https://metalarea.org/images/audiocovers/2018_Jan/acov_tid300475_thumb.jpg)

*Artist: Häxaldr
*Album: Necromantic Bloodshed
*Year: 2018
*Genre: Raw Black Metal
*Country: Sweden (IMG:https://metalarea.org/forum/style_images/flags/Sweden.png)
*Format: mp3@CBR256kbps
*Size: 97MB

Tracklist:
1.Nightfear 00:57
2.Wicked Obsessions 03:36
3.Eldig Tomrum 03:13
4.Burnt Scriptures 05:54
5.Återvändsgränd 05:56
6.Tyst Måne 04:09
7.Icy Vasts 11:03
8.Mur av Elände 05:04
9.Abuser 05:22
10.A Hymn to Ymir 03:58
******************************
Total playing time: 49:12



Technical info
(IMG:https://metalarea.org/images/spectrogram/2018_Jan/b4fd621dba62f2b98c6c0e28d820b848.png)
Input File: H?xaldr - Necromantic Bloodshed - 03 Eldig Tomrum.mp3
Channels : 2
Sample Rate : 44100
Precision : 16-bit
Duration : 00:03:13.52 = 8534012 samples = 14513.6 CDDA sectors
File Size : 6.58M
Bit Rate : 272k
Sample Encoding: MPEG audio (layer I, II or III)
Comments :
Title=Eldig Tomrum
Artist=Häxaldr
Album=Necromantic Bloodshed
Tracknumber=3
Year=2018



Register


Вернуться к началу страницы
  Insert nick Quick quote
+Цитировать сообщение
 
Создать новую тему
Replies (1 - 4)
post Jan 13 2018, 19:15:57
Post #2

кручу наждак
**************
Group: Металариец
Posts: 2,812
Releases: 84
From: Самара
On Forums: 7 years 9 months
Thanks: 2261 time(s)
Russian Federation


Обложка - высший класс (IMG:style_emoticons/default/1488.gif)
Вернуться к началу страницы
  Insert nick Quick quote
+Цитировать сообщение
post Jan 14 2018, 10:29:24
Post #3

Маньяк
**********
Group: Металариец
Posts: 1,122
Releases: 0
On Forums: 10 years 1 week
Thanks: 380 time(s)
Russian Federation


У меня 26 лет назад такая же причёска была. А по музыке - шляпа драммашиновая.
Вернуться к началу страницы
  Insert nick Quick quote
+Цитировать сообщение
post Jan 14 2018, 11:57:46
Post #4

Group: Подсевший
Posts: 14
Releases: 0
On Forums: 2 months 3 days
Thanks: 0 time(s)
Ukraine


Слабовато, увы. Нет той атмосферы и чего-то блэкового.
Даже звук испоганен искусственно, что очень сильно слышно здесь. Лучше бы не поганили звук и попытались с другими вещами там у себя на компе пошаманить, может и лучше получилось бы.
А может и нет.
Вернуться к началу страницы
  Insert nick Quick quote
+Цитировать сообщение
post Feb 2 2018, 17:31:48
Post #5

...Only Death Is Real...
**************
Group: Металариец
Posts: 2,528
Releases: 15
On Forums: 7 years 6 months
Thanks: 1570 time(s)
Russian Federation


(IMG:https://www.metal-archives.com/images/3/5/4/0/3540436082_photo.jpg)
Вернуться к началу страницы
  Insert nick Quick quote
+Цитировать сообщение

ОтветитьСоздать новую тему
1 User(s) are reading this topic (1 Guests and 0 Anonymous Users)
0 Members:

 



- Lo-Fi Version Support form
Copyrights and abuse reports form
Time is now: 19th February 2018 - 14:57:47