Welcome Guest ( Log In | Register )

> Releases Upload / Добавление релизов

Добавить релиз тут / Click here to add release
Рекомендованные обменники / Recommended file shares

 
ОтветитьСоздать новую тему
> Morari - The Light (2018), Post-Black Metal/Shoegaze
post Jan 13 2018, 15:34:20
Post #1

Шесть Литров
******
Group: Металариец
Posts: 685
Releases: 579
From: Новороссийск
On Forums: 6 years 9 months
Thanks: 9906 time(s)
Russian Federation


(IMG:https://metalarea.org/images/audiocovers/2018_Jan/acov_tid300476_thumb.jpg)

*Artist: Morari
*Album: The Light
*Year: 2018
*Genre: Post-Black Metal/Shoegaze
*Country: United States (IMG:https://metalarea.org/forum/style_images/flags/United%20States.png)
*Format: mp3@CBR320kbps
*Size: 109MB

Tracklist:
01. Autumn Roads 05:34
02. I Dream Of Flight 05:18
03. The Light 08:07
04. Darkest Hour 06:47
05. Linger 08:16
06. Emptiness 04:43
07. Breathing 08:48
******************************
Total playing time: 47:35




Technical info
(IMG:https://metalarea.org/images/spectrogram/2018_Jan/9f054eefb310443753a2f0e877e3175a.png)
Input File: 01 Autumn Roads.mp3
Channels : 2
Sample Rate : 44100
Precision : 16-bit
Duration : 00:05:34.27 = 14741351 samples = 25070.3 CDDA sectors
File Size : 13.4M
Bit Rate : 320k
Sample Encoding: MPEG audio (layer I, II or III)
Comments :
Title=Autumn Roads
Artist=Morari
Album=The Light
Tracknumber=01
Year=2018
Genre=Black Metal



Register


Вернуться к началу страницы
  Insert nick Quick quote
+Цитировать сообщение

ОтветитьСоздать новую тему
1 User(s) are reading this topic (1 Guests and 0 Anonymous Users)
0 Members:

 



- Lo-Fi Version Support form
Copyrights and abuse reports form
Time is now: 20th February 2018 - 07:01:26