Welcome Guest ( Log In | Register )

> Megalith Grave & Nihil Invocation - Malicious Curses Reached In Drawing Night [split] (2018), Black Metal | Black Metal
post Jan 13 2018, 19:46:42
Post #1

Маньяк
**********
Group: Металариец
Posts: 1,077
Releases: 896
From: Одесса
On Forums: 9 years 11 months
Thanks: 6965 time(s)
Ukraine


(IMG:http://metalarea.org/images/audiocovers/2018_Jan/acov_tid300485_thumb.jpg)

*Artist: Megalith Grave & Nihil Invocation
*Album: Malicious Curses Reached In Drawing Night [split]
*Year: 2018
*Genre: Black Metal | Black Metal
*Country: United States (IMG:http://metalarea.org/forum/style_images/flags/United%20States.png) | United States (IMG:http://metalarea.org/forum/style_images/flags/United%20States.png)
*Format: mp3@CBR320kbps
*Size: 66MB

Tracklist:
Megalith Grave:
1. Lost in Obscure Mists of Primeval Mysteries 03:00
2. Dismal Spells Bleed into Full Disincarnate 05:31
3. Vile Appetites Derived from Concentrated Metamorphis 03:38
Nihil Invocation:
4. Immortalized in the Reflective Sins of Sorrow 03:39
5. Taken to the Nullifying Realms of Sadness 03:14
6. The Snowfall, Endless, Beneath an Ocean of Winter Cold Starlight 04:18
7. Unto the Nocturnal Cultivation of My Dreams 04:00
******************************
Total playing time: 27:20



Technical info
(IMG:http://metalarea.org/images/spectrogram/2018_Jan/449eec51ed1cd59eb6181b68e6bdda93.png)
Input File: 06. The Snowfall, Endless, Beneath an Ocean of Winter Cold Starlight.mp3
Channels : 2
Sample Rate : 48000
Precision : 16-bit
Duration : 00:04:18.29 = 12397968 samples ~ 19371.8 CDDA sectors
File Size : 10.4M
Bit Rate : 322k
Sample Encoding: MPEG audio (layer I, II or III)
Comments :
Title=The Snowfall, Endless, Beneath an Ocean of Winter Cold Starlight
Artist=Nihil Invocation
Album=Malicious Curses Reached in Drawing Night (Split)
Tracknumber=6
Year=2018
Genre=138



Register


Вернуться к началу страницы
  Insert nick Quick quote
+Цитировать сообщение
 
Создать новую тему
Replies (1 - 2)
post Jan 13 2018, 20:22:19
Post #2

Prisoner Of Our Time
**************
Group: Металариец
Posts: 3,281
Releases: 39
From: Луганск, 13 регион, экс-"404"
On Forums: 12 years 6 months
Thanks: 890 time(s)
Unknown


вот это подгон! (IMG:style_emoticons/default/pray.gif) (IMG:style_emoticons/default/true_black.gif) (IMG:style_emoticons/default/metaler.gif)
спасибки (IMG:style_emoticons/default/9.gif)
Вернуться к началу страницы
  Insert nick Quick quote
+Цитировать сообщение
post Jan 14 2018, 17:49:54
Post #3

Правь статус, ####!111
**************
Group: Металариец
Posts: 6,609
Releases: 0
From: Москва
On Forums: 8 years 9 months
Thanks: 10951 time(s)
Russian Federation


Register
320


Вернуться к началу страницы
  Insert nick Quick quote
+Цитировать сообщение

ОтветитьСоздать новую тему
2 User(s) are reading this topic (2 Guests and 0 Anonymous Users)
0 Members:

 



- Lo-Fi Version Support form
Copyrights and abuse reports form
Time is now: 20th May 2018 - 18:29:24