Welcome Guest ( Log In | Register )

> Mortis Mutilati - The Stench Of Death (2018), Black Metal
post Jan 13 2018, 20:49:24
Post #1

Правь статус, ####!111
**************
Group: Металариец
Posts: 3,358
Releases: 684
From: Brazil
On Forums: 6 years 9 months
Thanks: 26776 time(s)
Brazil


(IMG:https://metalarea.org/images/audiocovers/2018_Jan/acov_tid300491_thumb.jpg)

*Artist: Mortis Mutilati
*Album: The Stench Of Death
*Year: 2018
*Genre: Black Metal
*Country: France (IMG:https://metalarea.org/forum/style_images/flags/France.png)
*Format: mp3@CBR320kbps
*Size: 118MB

Tracklist:
1. Nekro 02:42
2. Echoes from the Coffin 04:22
3. Crevant-Laveine 07:08
4. Regards d'outre tombe 05:58
5. Onguent mortuaire 04:16
6. Portrait ovale 10:30
7. Homicidal Conscience 04:55
8. Invocation а la momie 04:54
9. L'odeur du mort 04:41
10. Ecchymoses 00:55
******************************
Total playing time: 50:21

Technical info
(IMG:https://metalarea.org/images/spectrogram/2018_Jan/3d439ca1d1bd9bfac71ec6a79973b392.png)
Input File: 07 - Homicidal Conscience.mp3
Channels : 2
Sample Rate : 44100
Precision : 16-bit
Duration : 00:04:55.32 = 13023392 samples = 22148.6 CDDA sectors
File Size : 11.8M
Bit Rate : 320k
Sample Encoding: MPEG audio (layer I, II or III)
Comments :
Title=Homicidal Conscience
Artist=Mortis Mutilati
Album=The Stench of Death
Tracknumber=7
Year=2018
Genre=Black Metal



Register

Register


Go to the top of the page
  Insert nick Quick quote
+Quote Post
 
Start new topic
Replies (1 - 10)
post Jan 14 2018, 00:42:07
Post #2

Правь статус, ####!111
**************
Group: Металариец
Posts: 2,416
Releases: 11
From: Canada
On Forums: 11 years 5 months
Thanks: 1525 time(s)
Canada




Thanks:
Go to the top of the page
  Insert nick Quick quote
+Quote Post
post Jan 14 2018, 02:28:49
Post #3

Group: Подсевший
Posts: 32
Releases: 2
From: Moscow
On Forums: 6 years 6 months
Thanks: 98 time(s)
Russian Federation


Сказать, что это великолепно — ничего не сказать. Ни одного слабого риффа, все мелодии просто сходу в памяти отпечатываются. В топ года сразу.


Go to the top of the page
  Insert nick Quick quote
+Quote Post
post Jan 14 2018, 07:25:42
Post #4

кручу наждак
**************
Group: Металариец
Posts: 3,503
Releases: 91
From: Самара
On Forums: 8 years 6 months
Thanks: 2626 time(s)
Russian Federation


Шикарная обложка и неплохой около-депрессивный материал. Понравилось.


Thanks:
Go to the top of the page
  Insert nick Quick quote
+Quote Post
post Jan 14 2018, 15:40:28
Post #5

Литр
*
Group: Подсевший
Posts: 59
Releases: 0
On Forums: 8 years 9 months
Thanks: 7 time(s)
Ukraine


(Говно) (IMG:style_emoticons/default/22.gif) одним ловом!
Это Гот Блек


Thanks:
(1) Paatddal,
Go to the top of the page
  Insert nick Quick quote
+Quote Post
post Jan 14 2018, 16:14:51
Post #6

Правь статус, ####!111
**************
Group: Металариец
Posts: 6,615
Releases: 0
From: Москва
On Forums: 9 years 3 months
Thanks: 11716 time(s)
Russian Federation


Register
320


Go to the top of the page
  Insert nick Quick quote
+Quote Post
post Jan 15 2018, 08:36:29
Post #7

Paysage D'Hiver
**************
Group: Металариец
Posts: 5,688
Releases: 521
On Forums: 11 years 3 months
Thanks: 7950 time(s)
Russian Federation


ЦИТАТА(zhoporez @ Jan 14 2018, 17:40:28) *
(Говно) (IMG:style_emoticons/default/22.gif) одним ловом!
Это Гот Блек

Чёт соглашусь. Вообще никак.


Thanks:
Go to the top of the page
  Insert nick Quick quote
+Quote Post
post Jan 16 2018, 15:07:04
Post #8

Правь статус, ####!111
**************
Group: Металариец
Posts: 2,473
Releases: 12
On Forums: 11 years 3 months
Thanks: 1375 time(s)
Russian Federation


Абсолютно ничем не примечательный виа. Я даже целиком не осилил. Это не они ли давеча по могучей крымнашне рассекали? И да, лого у вокьюкре украли?
Go to the top of the page
  Insert nick Quick quote
+Quote Post
post Jan 19 2018, 17:10:47
Post #9

Мегаманьяк
***********
Group: Металариец
Posts: 1,634
Releases: 0
From: Dnipro
On Forums: 10 years 4 months
Thanks: 428 time(s)
Ukraine


Просто охрененно, впрочем как и два предыдущие.


Go to the top of the page
  Insert nick Quick quote
+Quote Post
post Jan 22 2018, 19:53:50
Post #10

Четыре Литра
****
Group: Металариец
Posts: 308
Releases: 0
On Forums: 12 years 3 months
Thanks: 166 time(s)
Belarus


(IMG:style_emoticons/default/22.gif)
Go to the top of the page
  Insert nick Quick quote
+Quote Post
post Jan 22 2018, 20:46:04
Post #11

ретроград
**************
Group: Металариец
Posts: 4,603
Releases: 176
On Forums: 11 years 5 months
Thanks: 6684 time(s)
Vatican City


Тоже не понял восторгов


Thanks:
(1) Storky,
Go to the top of the page
  Insert nick Quick quote
+Quote Post

Reply to this topicStart new topic
1 User(s) are reading this topic (1 Guests and 0 Anonymous Users)
0 Members:

 



- Lo-Fi Version Support form
Copyrights and abuse reports form
Time is now: 19th November 2018 - 18:22:54