Welcome Guest ( Log In | Register )

> Releases Upload / Добавление релизов

Добавить релиз тут / Click here to add release
Рекомендованные обменники / Recommended file shares

> Moondweller - The Search (2018), Atmospheric Black Metal
post Jan 14 2018, 07:58:20
Post #1

Group: Подсевший
Posts: 14
Releases: 7
On Forums: 1 year 4 days
Thanks: 154 time(s)
Unknown


(IMG:http://metalarea.org/images/audiocovers/2018_Jan/acov_tid300498_thumb.jpg)

*Artist: Moondweller
*Album: The Search
*Year: 2018
*Genre: Atmospheric Black Metal
*Country: Russian Federation (IMG:http://metalarea.org/forum/style_images/flags/Russian%20Federation.png)
*Format: mp3@CBR320kbps
*Size: 95MB

Tracklist:
1. The Journey Begins 08:51
2. First Encounter 07:20
3. Hidden Knowledge 06:25
4. Through Silence 02:45
5. Second Encounter 08:14
6. The Search 07:53
******************************
Total playing time: 41:28



Technical info
(IMG:http://metalarea.org/images/spectrogram/2018_Jan/f2be52e35eaa9e6e0e4cbb72b813124d.png)
Input File: 01 The Journey Begins.mp3
Channels : 2
Sample Rate : 44100
Precision : 16-bit
Duration : 00:08:51.28 = 23429404 samples = 39845.9 CDDA sectors
File Size : 21.3M
Bit Rate : 320k
Sample Encoding: MPEG audio (layer I, II or III)
Comments :
Title=The Journey Begins
Artist=Moondweller
Album=The Search
Tracknumber=1
Year=2018



Register


Вернуться к началу страницы
  Insert nick Quick quote
+Цитировать сообщение
 
Создать новую тему
Replies (1 - 2)
post Jan 14 2018, 14:29:29
Post #2

Маньяк
**********
Group: Металариец
Posts: 1,032
Releases: 0
From: Беларусь
On Forums: 10 years 1 month
Thanks: 374 time(s)
Russian Federation


Типо Darkspace
Вернуться к началу страницы
  Insert nick Quick quote
+Цитировать сообщение
post Feb 3 2018, 07:26:40
Post #3

i listen to black metal
**************
Group: Металариец
Posts: 2,119
Releases: 128
From: Москва-Лианозово
On Forums: 11 years 1 month
Thanks: 1969 time(s)
Russian Federation


тупо и бездарно
Вернуться к началу страницы
  Insert nick Quick quote
+Цитировать сообщение

ОтветитьСоздать новую тему
1 User(s) are reading this topic (1 Guests and 0 Anonymous Users)
0 Members:

 



- Lo-Fi Version Support form
Copyrights and abuse reports form
Time is now: 20th February 2018 - 07:02:37