Welcome Guest ( Log In | Register )

> Правила / Rules

Тут только для чтения лежат низкобитрейтные (<192kbps) релизы, для которых есть аналоги в высокобитрейтных форумах.

Here goes (and stand in read only mode) low bitrate releases (<192kbps) which were already replaced by high bitrate releases in corresponding forums.

> Rotheads - Sewer Fiends (2018), Old School Death Metal
post Jan 19 2018, 20:58:42
Post #1

Аннигилятор пивА
Group Icon
Group: V.I.P
Posts: 48,917
Releases: 14980
From: Koenigsberg - TILZIT
On Forums: 12 years 3 months
Thanks: 327958 time(s)
Russian Federation


(IMG:https://metalarea.org/images/audiocovers/2018_Jan/acov_tid300743_thumb.jpg)

*Artist: Rotheads
*Album: Sewer Fiends
*Year: 2018
*Genre: Old School Death Metal
*Country: Romania (IMG:https://metalarea.org/forum/style_images/flags/Romania.png)
*Format: mp3@CBR128kbps (IMG:https://metalarea.org/images/bit_low.gif)
*Size: 40MB

Tracklist:
1. Sewer Fiends
2. From The Glowing Goo Rise
3. Rats In The Walls
4. Psychic Leech
5. Servants Of The Unlight
6. The Mad Oracle Of Seweropolis
7. Dance Of The Vermin
******************************
Total playing time: 42:15




Technical info
(IMG:https://metalarea.org/images/spectrogram/2018_Jan/f4fa55fb8ad8678e7e1c40f6eab2dee1.png)
Input File: 02. From The Glowing Goo Rise.mp3
Channels : 2
Sample Rate : 44100
Precision : 16-bit
Duration : 00:06:44.36 = 17832364 samples = 30327.1 CDDA sectors
File Size : 6.48M
Bit Rate : 128k
Sample Encoding: MPEG audio (layer I, II or III)
Comments :
Title=From The Glowing Goo Rise
Artist=Rotheads
Album=Sewer Fiends
Tracknumber=2
Year=2018



Register


Go to the top of the page
  Insert nick Quick quote
+Quote Post
 
Start new topic
Replies (1 - 7)
post Jan 20 2018, 09:56:41
Post #2

Аннигилятор пивА
Group Icon
Group: V.I.P
Posts: 48,917
Releases: 14980
From: Koenigsberg - TILZIT
On Forums: 12 years 3 months
Thanks: 327958 time(s)
Russian Federation


MIRROR
Register


Thanks:
Go to the top of the page
  Insert nick Quick quote
+Quote Post
post Jan 20 2018, 14:10:21
Post #3

Пять Литров
*****
Group: Металариец
Posts: 422
Releases: 0
From: Град Московский
On Forums: 10 years 8 months
Thanks: 88 time(s)
Russian Federation


СУПЕР!!!
Go to the top of the page
  Insert nick Quick quote
+Quote Post
post Jan 20 2018, 16:07:35
Post #4

Crush! Kill! Destroy!
**************
Group: Металариец
Posts: 4,547
Releases: 15
From: Kaliningrad
On Forums: 10 years 10 months
Thanks: 4249 time(s)
Russian Federation


Надеюсь на заказанном ЦД звук драмсов получше будет, а так альбом зверский!


Thanks:
(1) judaz,
Go to the top of the page
  Insert nick Quick quote
+Quote Post
post Feb 22 2018, 17:46:51
Post #5

Литр
*
Group: Подсевший
Posts: 62
Releases: 4
On Forums: 10 years 5 months
Thanks: 90 time(s)
Pakistan


FLAC or 320?
Go to the top of the page
  Insert nick Quick quote
+Quote Post
post Mar 16 2018, 04:36:37
Post #6

кручу наждак
**************
Group: Металариец
Posts: 3,394
Releases: 89
From: Самара
On Forums: 8 years 4 months
Thanks: 2536 time(s)
Russian Federation


Шикарно.
Ноунеймы опять жгут и рушат, и опять этого никто не заметит.
Go to the top of the page
  Insert nick Quick quote
+Quote Post
post Apr 7 2018, 16:31:19
Post #7

Литр
*
Group: Подсевший
Posts: 91
Releases: 2
From: Lysva Perm Area
On Forums: 8 years 9 months
Thanks: 78 time(s)
Russian Federation


есть у кого FLAC
Go to the top of the page
  Insert nick Quick quote
+Quote Post
post May 13 2018, 17:41:35
Post #8

Правь статус, ####!111
**************
Group: Металариец
Posts: 14,321
Releases: 9928
From: Г.Харьков
On Forums: 6 years 4 months
Thanks: 162957 time(s)
Unknown


Register

Register


Thanks:
Go to the top of the page
  Insert nick Quick quote
+Quote Post

Причина закрытия (Borderline1991 14-05-2018): Rotheads - Sewer Fiends (2018)
Closed TopicStart new topic
2 User(s) are reading this topic (2 Guests and 0 Anonymous Users)
0 Members:

 



- Lo-Fi Version Support form
Copyrights and abuse reports form
Time is now: 24th September 2018 - 21:58:36