Welcome Guest ( Log In | Register )

> Atomicide - Crushing Son Of A Bitch [demo] (2005), Death/Thrash Metal
post Jan 21 2018, 09:36:14
Post #1


Group Icon
Group: S-moderation team
Posts: 10,813
Releases: 1438
From: Zagreb
On Forums: 8 years 3 months
Thanks: 46685 time(s)
Croatia


(IMG:http://metalarea.org/images/audiocovers/2018_Jan/acov_tid300804_thumb.JPG)

*Artist: Atomicide
*Album: Crushing Son Of A Bitch [demo]
*Year: 2005
*Genre: Death/Thrash Metal
*Country: Chile (IMG:http://metalarea.org/forum/style_images/flags/Chile.png)
*Format: mp3@VBR296kbps
*Size: 34MB

Tracklist:
1. Crushing Son of A Bitch 02:02
2. Deathmetal Command 02:08
3. Troops of Extermination 01:42
4. Orange Rain 02:36
5. Pisagua In Burning Down 02:03
6. Atomicide 02:09
7. Alcohol and Gunpowder 02:33
******************************
Total playing time: 15:13

Extended info
Death Division Rituals cassette, 500 copies.


Technical info
(IMG:http://metalarea.org/images/spectrogram/2018_Jan/fe3d670ae7c2112c4e6ba62b5f64a0fb.png)
Input File: 01 Crushing Son Of A Bitch.mp3
Channels : 2
Sample Rate : 44100
Precision : 16-bit
Duration : 00:02:02.83 = 5416671 samples = 9212.03 CDDA sectors
File Size : 5.18M
Bit Rate : 337k
Sample Encoding: MPEG audio (layer I, II or III)
Comments :
Title=Crushing Son Of A Bitch
Artist=Atomicide
Album=Crushing Son Of A Bitch
Tracknumber=1
Year=2005



Register


Go to the top of the page
  Insert nick Quick quote
+Quote Post
 
Start new topic
Replies (1 - 2)
post Jan 21 2018, 14:40:48
Post #2

_ - = # Thrashogolic # = - _ ... а давайте поржём все вместе
**************
Group: Металариец
Posts: 21,095
Releases: 4444
From: 404
On Forums: 9 years 2 days
Thanks: 27489 time(s)
Ukraine


So... maybe, you form the discography of them? (IMG:style_emoticons/default/smile3.gif)
Go to the top of the page
  Insert nick Quick quote
+Quote Post
post Jan 21 2018, 14:49:37
Post #3


Group Icon
Group: S-moderation team
Posts: 10,813
Releases: 1438
From: Zagreb
On Forums: 8 years 3 months
Thanks: 46685 time(s)
Croatia


QUOTE(Genuine Thrashiac @ Jan 21 2018, 14:40:48) *
So... maybe, you form the discography of them? (IMG:style_emoticons/default/smile3.gif)
yes, tomorrow.



Go to the top of the page
  Insert nick Quick quote
+Quote Post

Reply to this topicStart new topic
1 User(s) are reading this topic (1 Guests and 0 Anonymous Users)
0 Members:

 



- Lo-Fi Version Support form
Copyrights and abuse reports form
Time is now: 19th June 2019 - 03:51:31