Welcome Guest ( Log In | Register )

> Grafvitnir - Keys To The Mysteries Beyond (2017), Black Metal (D6)
post Jan 22 2018, 08:48:41
Post #1

Маньяк
**********
Group: Металариец
Posts: 1,016
Releases: 374
On Forums: 8 years 7 months
Thanks: 8465 time(s)
Eritrea


(IMG:http://metalarea.org/images/audiocovers/2018_Jan/acov_tid300836_thumb.jpg)

*Artist: Grafvitnir
*Album: Keys To The Mysteries Beyond
*Year: 2017
*Genre: Black Metal
*Country: Sweden (IMG:http://metalarea.org/forum/style_images/flags/Sweden.png)
*Format: mp3@CBR320kbps
*Size: 101MB

Tracklist:
01. Nidhцgg 05:42
02. Key To The Mysteries Beyond 04:26
03. Vargavinter 05:38
04. Crossing The Abyss 01:38
05. Eternity's Glistening Black 04:04
06. Journey Into Storms 01:41
07. Unleash The Storm Of Nothingness 03:53
08. Eye Of Lucifer 05:28
09. Whispers Of The Primordial Sea 04:23
10. Glimpses Of The Unseeable 05:01
******************************
Total playing time: 41:54

Extended info
+ Scans. Thanx to Lord Frostdomain for the original upload


Technical info
(IMG:http://metalarea.org/images/spectrogram/2018_Jan/065ffa68d1c95e97f36c22842927a10a.png)
Input File: 1. Nidhogg cut.mp3
Channels : 2
Sample Rate : 44100
Precision : 16-bit
Duration : 00:01:48.04 = 4764652 samples = 8103.15 CDDA sectors
File Size : 4.32M
Bit Rate : 320k
Sample Encoding: MPEG audio (layer I, II or III)



Register


Go to the top of the page
  Insert nick Quick quote
+Quote Post
 
Start new topic
Replies (1 - 10)
post Jan 22 2018, 08:58:30
Post #2

Morbid Angel
**************
Group: Металариец
Posts: 4,166
Releases: 0
From: Литва г.Клайпеда
On Forums: 12 years 4 months
Thanks: 1773 time(s)
Lithuania




Go to the top of the page
  Insert nick Quick quote
+Quote Post
post Jan 22 2018, 11:34:13
Post #3

Let's Go Ducks!
**************
Group: Металариец
Posts: 2,305
Releases: 10
From: Khazad-dûm
On Forums: 11 years 5 months
Thanks: 1057 time(s)
Ukraine


Типичный, но качественный мелодик-шведоблек.
Очередной крепкий альбом, не помню у этой банды проходных релизов.
В общем, кому такое катит, должно вкатить и здесь
Go to the top of the page
  Insert nick Quick quote
+Quote Post
post Jan 22 2018, 11:45:10
Post #4

Group: Подсевший
Posts: 27
Releases: 0
From: Korolev, Zavokzalka
On Forums: 10 years 10 months
Thanks: 36 time(s)
Antarctica


сатана зло и смерть
ночью в лесу самое оно
Go to the top of the page
  Insert nick Quick quote
+Quote Post
post Jan 22 2018, 11:52:00
Post #5

Самый Тихий Час
**************
Group: Металариец
Posts: 5,727
Releases: 0
On Forums: 9 years 8 months
Thanks: 2557 time(s)
Unknown


Средне. Слушабельно но не маст листен.
Go to the top of the page
  Insert nick Quick quote
+Quote Post
post Jan 22 2018, 15:37:44
Post #6

Group: Подсевший
Posts: 13
Releases: 0
On Forums: 5 years 1 month
Thanks: 1 time(s)
South Africa


Please re-upload (IMG:style_emoticons/default/pray.gif)
Go to the top of the page
  Insert nick Quick quote
+Quote Post
post Jan 22 2018, 15:43:16
Post #7

Правь статус, ####!111
**************
Group: Металариец
Posts: 3,723
Releases: 870
From: Brazil
On Forums: 7 years 5 months
Thanks: 32924 time(s)
Brazil


QUOTE(Vitner @ Jan 22 2018, 15:37:44) *
Please re-upload (IMG:style_emoticons/default/pray.gif)


Register


Go to the top of the page
  Insert nick Quick quote
+Quote Post
post Jan 22 2018, 16:08:38
Post #8

Group: Подсевший
Posts: 13
Releases: 0
On Forums: 5 years 1 month
Thanks: 1 time(s)
South Africa


QUOTE(lestllk @ Jan 22 2018, 16:43:16) *


Hails!!!
Thanks alot (IMG:style_emoticons/default/25.gif)
Go to the top of the page
  Insert nick Quick quote
+Quote Post
post Jan 22 2018, 19:27:13
Post #9

i listen to black metal
**************
Group: Металариец
Posts: 2,365
Releases: 128
From: Москва-Лианозово
On Forums: 12 years 6 months
Thanks: 2051 time(s)
Russian Federation


это не мелодик,а хороший БЛЭК
Go to the top of the page
  Insert nick Quick quote
+Quote Post
post Jan 24 2018, 10:07:34
Post #10

Четыре Литра
****
Group: Металариец
Posts: 354
Releases: 0
On Forums: 1 year 8 months
Thanks: 156 time(s)
Unknown


Качественный Чёрный Метал 666
Очень жалею что не заказал его, нужно срочно исправляться
Go to the top of the page
  Insert nick Quick quote
+Quote Post
post Mar 6 2019, 19:28:40
Post #11

Black is beautiful
***********
Group: Металариец
Posts: 1,716
Releases: 4
On Forums: 7 years 4 months
Thanks: 331 time(s)
Unknown


Best! (IMG:style_emoticons/default/pray.gif) (IMG:style_emoticons/default/pray.gif) (IMG:style_emoticons/default/true_black.gif) (IMG:style_emoticons/default/true_black.gif)
Go to the top of the page
  Insert nick Quick quote
+Quote Post

Reply to this topicStart new topic
2 User(s) are reading this topic (2 Guests and 0 Anonymous Users)
0 Members:

 



- Lo-Fi Version Support form
Copyrights and abuse reports form
Time is now: 18th July 2019 - 05:50:52