Welcome Guest ( Log In | Register )

> Правила / Rules

Тут только для чтения лежат низкобитрейтные (<192kbps) релизы, для которых есть аналоги в высокобитрейтных форумах.

Here goes (and stand in read only mode) low bitrate releases (<192kbps) which were already replaced by high bitrate releases in corresponding forums.

Причина закрытия (DarkHorde 19-04-2018): Sepultus Est - Precipicios Del Atardecer (2017)
 
Closed TopicStart new topic
> Sepultus Est - Precipicios Del Atardecer (2017), Funeral Doom Metal
post Jan 23 2018, 10:55:29
Post #1

Девять Литров
*********
Group: Металариец
Posts: 960
Releases: 804
From: Новороссийск
On Forums: 8 years 2 months
Thanks: 14054 time(s)
Russian Federation


(IMG:https://metalarea.org/images/audiocovers/2018_Jan/acov_tid300884_thumb.jpg)

*Artist: Sepultus Est
*Album: Precipicios Del Atardecer
*Year: 2017
*Genre: Funeral Doom Metal
*Country: Peru (IMG:https://metalarea.org/forum/style_images/flags/Peru.png)
*Format: mp3@CBR128kbps (IMG:https://metalarea.org/images/bit_low.gif)
*Size: 65MB

Tracklist:
01. Melodia De Los Crepusculos Sin Ti 08:29
02. Precipicios Del Atardecer 33:57
03. Recuerdo De Un Atardecer 04:27
04. Remember Hiroshima 12:35
05. Suicidio En El Nombre De SaTan 11:05
******************************
Total playing time: 1:10:35




Technical info
(IMG:https://metalarea.org/images/spectrogram/2018_Jan/0441340abfea90bb944bac41b059ad73.png)
Input File: 02. Precipicios Del Atardecer.mp3
Channels : 2
Sample Rate : 44100
Precision : 16-bit
Duration : 00:33:58.26 = 89887090 samples = 152869 CDDA sectors
File Size : 32.6M
Bit Rate : 128k
Sample Encoding: MPEG audio (layer I, II or III)
Comments :
Title=Precipicios Del Atardecer
Artist=Sepultus Est
Album=Precipicios Del Atardecer
Tracknumber=02
Year=2017
Genre=Doom Metal



Register


Go to the top of the page
  Insert nick Quick quote
+Quote Post

Причина закрытия (DarkHorde 19-04-2018): Sepultus Est - Precipicios Del Atardecer (2017)
Closed TopicStart new topic
1 User(s) are reading this topic (1 Guests and 0 Anonymous Users)
0 Members:

 



- Lo-Fi Version Support form
Copyrights and abuse reports form
Time is now: 19th July 2019 - 15:50:51