Welcome Guest ( Log In | Register )

> Gnipahålan - Vånnalösa Urskepnader [demo] (2016), Black Metal
post Jan 24 2018, 12:11:25
Post #1

Три Литра
***
Group: Завсегдатай
Posts: 280
Releases: 193
On Forums: 8 years 10 months
Thanks: 3045 time(s)
Saint Pierre and Miquelon


(IMG:http://metalarea.org/images/audiocovers/2018_Jan/acov_tid300932_thumb.jpg)

*Artist: Gnipahålan
*Album: Vånnalösa Urskepnader [demo]
*Year: 2016
*Genre: Black Metal
*Country: Sweden (IMG:http://metalarea.org/forum/style_images/flags/Sweden.png)
*Format: mp3@CBR320kbps
*Size: 141MB

Tracklist:
1. Vinterkylans Magi 06:37
2. Järnkitteln Kokar 06:29
3. Viddernas Kall 02:12
4. Vemodens Visdomskälla 05:27
5. Mörkerkonst 05:43
6. Vid Sorgens Horisont 04:26
7. Minnen Från Förr (del.I) 02:38
8. Nordens Vilja Lös 06:28
9. Lanskap I Flammor 05:33
10. Källan Vid Inom 01:32
11. I Skogens Ande 02:43
12. Evighetens Cirkel 05:36
13. Minnen Från Förr (del.II) 05:07
******************************
Total playing time: 1:00:31

Technical info
(IMG:http://metalarea.org/images/spectrogram/2018_Jan/e287629cd651bb4a7711c76060c44333.png)
Input File: B4.mp3
Channels : 2
Sample Rate : 44100
Precision : 16-bit
Duration : 00:01:32.15 = 4063595 samples = 6910.88 CDDA sectors
File Size : 4.55M
Bit Rate : 395k
Sample Encoding: MPEG audio (layer I, II or III)
Comments :
Title=Källan Vid Inom
Artist=GnipahГҐlan
Album=Vånnalösa Urskepnader
Tracknumber=10
Year=2017
Genre=Black Metal



Register


Go to the top of the page
  Insert nick Quick quote
+Quote Post
 
Start new topic
Replies (1 - 5)
post Jan 24 2018, 12:30:24
Post #2


Group Icon
Group: S-moderation team
Posts: 12,910
Releases: 1439
From: Zagreb
On Forums: 8 years 9 months
Thanks: 56083 time(s)
Croatia


Register


Go to the top of the page
  Insert nick Quick quote
+Quote Post
post Jan 24 2018, 18:22:01
Post #3

Маньяк
**********
Group: Металариец
Posts: 1,109
Releases: 37
From: великий город Питер
On Forums: 13 years 11 months
Thanks: 1888 time(s)
Russian Federation


с продолжительностью треков какая-то хрень полная...... и архивы и дискогс выдают совсем другое:
A1 Vinterkylans Magi 7:00
A2 Jдrnkitteln Kokar 6:55
A3 Viddernas Kall 2:26
A4 Vemodens Visdomskдlla 5:48
A5 Mцrkerkonst 6:09
A6 Vid Sorgens Horisont 4:49
B7 Minnen Frеn Fцrr 2:56
B8 Nordens Vilja Lцs 6:01
B9 Lanskap I Flammor 5:30
B10 Kдllan Vid Inom 2:50
B11 I Skogens Ande 6:55
B12 Evighetens Cirkel 5:58
B13 Minnen Frеn Fцrr (Del.II) 1:41


Thanks:
(1) Zaephar,
Go to the top of the page
  Insert nick Quick quote
+Quote Post
post Jan 24 2018, 19:42:13
Post #4

Три Литра
***
Group: Завсегдатай
Posts: 280
Releases: 193
On Forums: 8 years 10 months
Thanks: 3045 time(s)
Saint Pierre and Miquelon


QUOTE(AlexCrazy @ Jan 24 2018, 19:22:01) *
с продолжительностью треков какая-то хрень полная...... и архивы и дискогс выдают совсем другое:
A1 Vinterkylans Magi 7:00
A2 Jдrnkitteln Kokar 6:55
A3 Viddernas Kall 2:26
A4 Vemodens Visdomskдlla 5:48
A5 Mцrkerkonst 6:09
A6 Vid Sorgens Horisont 4:49
B7 Minnen Frеn Fцrr 2:56
B8 Nordens Vilja Lцs 6:01
B9 Lanskap I Flammor 5:30
B10 Kдllan Vid Inom 2:50
B11 I Skogens Ande 6:55
B12 Evighetens Cirkel 5:58
B13 Minnen Frеn Fцrr (Del.II) 1:41


I was also surprised when the track lengths didn't match with the ones I saw on discogs and metal-archives. But that's a full rip of the tape I got, the tracks were perfectly splitted because there are few silence seconds between them, so there is no doubt about their duration. Take ir or leave it, I encourage you to rip the tape yourself and see.


Thanks:
Go to the top of the page
  Insert nick Quick quote
+Quote Post
post Jan 26 2018, 18:29:23
Post #5

Семь Литров
*******
Group: Металариец
Posts: 727
Releases: 52
On Forums: 8 years 10 months
Thanks: 2664 time(s)
Ukraine


Поправил громкость в каналах. Не возможно было слушать.
Register


Go to the top of the page
  Insert nick Quick quote
+Quote Post
post Feb 2 2018, 11:47:38
Post #6

Group: Дух
Posts: 2
Releases: 0
On Forums: 1 year 10 months
Thanks: 0 time(s)
Germany


The differences in the duration time is because those rips are sped up ! You can here the difference when playing the real tape.

Total playing time for the 2016 tape is 1h04min

Almost 5 minutes is missing !

If someone can rip the tapes at the right speed it would be perfect !
Go to the top of the page
  Insert nick Quick quote
+Quote Post

Reply to this topicStart new topic
2 User(s) are reading this topic (2 Guests and 0 Anonymous Users)
0 Members:

 



- Lo-Fi Version Support form
Copyrights and abuse reports form
Time is now: 13th December 2019 - 11:21:23