Welcome Guest ( Log In | Register )

> 

Здесь релизы с живыми прямыми ссылками на lossless

> Loudness - Rise To Glory (2018), Heavy Metal
post Jan 25 2018, 11:44:52
Post #1

Serial Uploader
Group Icon
Group: V.I.P
Posts: 37,136
Releases: 35320
From: Lithuania
On Forums: 11 years 11 months
Thanks: 419610 time(s)
Lithuania


(IMG:https://metalarea.org/images/audiocovers/2018_Jan/acov_tid300984_thumb.jpg)

*Artist: Loudness
*Album: Rise To Glory
*Year: 2018
*Genre: Heavy Metal
*Country: Japan (IMG:https://metalarea.org/forum/style_images/flags/Japan.png)
*Format: mp3@CBR320kbps
*Size: 140MB

Tracklist:
01. 8118
02. Soul On Fire 05:50
03. I'm Still Alive 03:18
04. Go For Broke 04:55
05. Until I See The Light 04:43
06. The Voice 04:31
07. Massive Tornado 04:56
08. Kama Sutra 03:19
09. Rise To Glory 04:17
10. Why And For Whom 06:00
11. No Limits 05:09
12. Rain 06:19
13 Let's All Rock (Bonus Track) 06:01
******************************
Total playing time: 59:18

(IMG:https://metalarea.org/images/myspace.png)


Extended info
Also released with bonus 2 CD


Technical info
(IMG:https://metalarea.org/images/spectrogram/2018_Jan/82cdd56d9207d640e0281e6f8443f486.png)
Input File: 02. Soul on Fire.mp3
Channels : 2
Sample Rate : 44100
Precision : 16-bit
Duration : 00:05:50.10 = 15439366 samples = 26257.4 CDDA sectors
File Size : 14.1M
Bit Rate : 321k
Sample Encoding: MPEG audio (layer I, II or III)
Comments :
Title=Soul on Fire
Artist=LOUDNESS
Album=Rise to Glory
Tracknumber=2
Year=2018
Discnumber=1



Register


Go to the top of the page
  Insert nick Quick quote
+Quote Post
 
Start new topic
Replies (1 - 6)
post Jan 25 2018, 14:08:09
Post #2

MDM-Thrash Metal
**************
Group: Металариец
Posts: 9,539
Releases: 866
From: Одесса
On Forums: 12 years 9 months
Thanks: 22697 time(s)
Ukraine


Register


Go to the top of the page
  Insert nick Quick quote
+Quote Post
post Jan 25 2018, 14:34:59
Post #3

железный нечеловек
**********
Group: Металариец
Posts: 1,267
Releases: 3
From: Уфа
On Forums: 11 years 1 month
Thanks: 448 time(s)
Russian Federation


Честно говоря, давно от них ничего не жду,просто слушаю по инерции...
Go to the top of the page
  Insert nick Quick quote
+Quote Post
post Jan 26 2018, 22:28:15
Post #4

MDM-Thrash Metal
**************
Group: Металариец
Posts: 9,539
Releases: 866
From: Одесса
On Forums: 12 years 9 months
Thanks: 22697 time(s)
Ukraine




Go to the top of the page
  Insert nick Quick quote
+Quote Post
post Jan 26 2018, 23:37:04
Post #5

Ледоруб
**************
Group: Металариец
Posts: 25,550
Releases: 0
From: Санкт-Петербург
On Forums: 10 years 8 months
Thanks: 8884 time(s)
Russian Federation


Не всех ещё схоронили, смотрю.
Go to the top of the page
  Insert nick Quick quote
+Quote Post
post Feb 11 2018, 08:43:49
Post #6

Old School Metal
**************
Group: Металариец
Posts: 2,655
Releases: 0
From: г. Минск
On Forums: 11 years 2 months
Thanks: 6239 time(s)
Belarus


Go to the top of the page
  Insert nick Quick quote
+Quote Post
post Feb 1 2020, 12:29:51
Post #7

Литр
*
Group: Подсевший
Posts: 55
Releases: 0
On Forums: 7 years 2 months
Thanks: 1 time(s)
Unknown


Reupload please
Go to the top of the page
  Insert nick Quick quote
+Quote Post

Reply to this topicStart new topic
1 User(s) are reading this topic (1 Guests and 0 Anonymous Users)
0 Members:

 



- Lo-Fi Version Support form
Copyrights and abuse reports form
Time is now: 5th June 2020 - 16:45:10