Welcome Guest ( Log In | Register )

> И неформату есть предел.

Рэп/хип-хоп/шансон/поп удаляются. Для них есть свои порталы.

> Imber Luminis - Variations [ep] (2018), Atmospheric Depressive/Post-Rock (D)
post Jan 30 2018, 00:23:36
Post #1

Аннигилятор пивА
Group Icon
Group: V.I.P
Posts: 52,360
Releases: 16551
From: Koenigsberg - TILZIT
On Forums: 13 years 8 months
Thanks: 364222 time(s)
Russian Federation


(IMG:https://metalarea.org/images/audiocovers/2018_Jan/acov_tid301195_thumb.jpg)

*Artist: Imber Luminis
*Album: Variations [ep]
*Year: 2018
*Genre: Atmospheric Depressive/Post-Rock
*Country: Belgium (IMG:https://metalarea.org/forum/style_images/flags/Belgium.png)
*Format: mp3@CBR320kbps
*Size: 106MB

Tracklist:
1. Variations on 'Dancing with Stars' 08:12
2. Variations on 'Life as Burden' 09:08
3. Interlude 05:34
4. Variations on 'Imber' 11:53
5. Variations on 'Aeternus' 10:40
******************************
Total playing time: 45:27




Extended info
флак-рип

"Variations" is a (long?) EP, with reinterpretation of older Imber Luminis songs in a more ambient, "post rock" way
Déhà - All instruments, Vocals (2006-present) See also: Clouds, COAG, Cult of Erinyes, Deos, God Eat God, God Enslavement, K.F.R, Lebenssucht, Maladie, Merda Mundi, Slow, Ter Ziele, Vaer, We All Die (Laughing), Yhdarl, Ignifer, ex-Black Sin, ex-Deviant Messiah, ex-Sources of I, Aurora Borealis, Lidden, ex-DunkelNacht, ex-Ithilien, ex-Wunde, ex-Alenda, ex-AutoDestructionNeeded, ex-Eat Their Crusts, ex-GigaPenzor, ex-Jah El Camino, ex-Khel, ex-NØD, ex-Tiarra, ex-Unfathomable Ruination, ex-L.O.S.T., ex-Amatris


Technical info
(IMG:https://metalarea.org/images/spectrogram/2018_Jan/5a340092b98c008fde85060805da4879.png)
Input File: Imber Luminis - Variations - 02 Variations on \'Life as Burden\'.mp3
Channels : 2
Sample Rate : 44100
Precision : 16-bit
Duration : 00:09:08.73 = 24198861 samples = 41154.5 CDDA sectors
File Size : 22.0M
Bit Rate : 321k
Sample Encoding: MPEG audio (layer I, II or III)
Comments :
Title=Variations on 'Life as Burden'
Artist=Imber Luminis
Album=Variations
Tracknumber=2
Year=2018



Register


Go to the top of the page
  Insert nick Quick quote
+Quote Post
 
Start new topic
Replies (1 - 3)
post Jan 31 2018, 15:33:48
Post #2

Мегаманьяк
***********
Group: Металариец
Posts: 1,851
Releases: 0
From: Харьков
On Forums: 10 years 4 months
Thanks: 809 time(s)
Ukraine


И как оно? Жанр привлекательно звучит.
Go to the top of the page
  Insert nick Quick quote
+Quote Post
post Aug 1 2018, 16:39:42
Post #3

Кожаный ублюдок
**************
Group: Металариец
Posts: 3,106
Releases: 6
From: Алчевск (early) Некросибирск (now)
On Forums: 10 years 9 months
Thanks: 1892 time(s)
Russian Federation


Безусловно талантливый парень Déhà в этом году определенно разошелся не на шутку. Пока так сказать верстался номер, он успел выкатить еще и полноформат, но я уж решил пока ограничится впечатлениями от его EP, тем более тут есть что сказать.
Начать, пожалуй, стоит с того, что если последние альбомы бельгийца, в рамках сего проекта конечно же, были исполнены в стиле атмосферного блэка в сочетании с думом, то нынешний миник разительно от них отличается. В нынешнем материале отчетливо слышны вещи как с прошлого релиза, так и с его предшественников, о чем не трудно догадаться по названиям треков, но выполнены эти вещи воистину в виде вариаций, ибо главенствует здесь пост-рок. Нельзя сказать, что прошлые произведения были полностью лишены его влияния, но все же здесь он стоит в авангарде. Надо сказать, что получилось несколько неожиданно и очень красиво. Приятная музыка, особенно вкатывает в поездках, но только если вы не за рулём автомобиля. Под такое и уснуть недолго. По поводу звука ничего не буду говорить, тем, кто знаком с деятельностью данного персонажа ничего говорить не надо.
В общем миньон прекрасен своей неоднозначностью и однозначно заслуживает внимания. Надо теперь еще как-то переключится на лад нового альбома, более традиционного, надо сказать. Данный релиз очень рекомендую даже тем, кому основной материал не вкатывал никогда. Есть над чем подумать! (IMG:style_emoticons/default/9.gif) (IMG:style_emoticons/default/9.gif) (IMG:style_emoticons/default/9.gif)


Thanks:
Go to the top of the page
  Insert nick Quick quote
+Quote Post
post Jan 16 2020, 21:49:48
Post #4

Group: Подсевший
Posts: 49
Releases: 0
From: Краснодар
On Forums: 12 years 6 months
Thanks: 7 time(s)
Russian Federation


re-up, please (IMG:style_emoticons/default/pray.gif)
Go to the top of the page
  Insert nick Quick quote
+Quote Post

Reply to this topicStart new topic
1 User(s) are reading this topic (1 Guests and 0 Anonymous Users)
0 Members:

 



- Lo-Fi Version Support form
Copyrights and abuse reports form
Time is now: 25th February 2020 - 10:19:07