Welcome Guest ( Log In | Register )

> 

Здесь релизы с живыми прямыми ссылками на lossless

> Disastrous Murmur - Skinning Beginning (1989-1991) [compilation] (2018), Old School Death Metal
post Feb 1 2018, 11:30:41
Post #1

Аннигилятор пивА
Group Icon
Group: V.I.P
Posts: 46,848
Releases: 14069
From: Koenigsberg - TILZIT
On Forums: 12 years 3 weeks
Thanks: 312242 time(s)
Russian Federation


(IMG:https://metalarea.org/images/audiocovers/2018_Feb/acov_tid301290_thumb.jpg)

*Artist: Disastrous Murmur
*Album: Skinning Beginning (1989-1991) [compilation]
*Year: 2018
*Genre: Old School Death Metal
*Country: Austria (IMG:https://metalarea.org/forum/style_images/flags/Austria.png)
*Format: mp3@CBR320kbps
*Size: 99MB

Tracklist:
1. Intro
2. Sanguinary Contusion
3. Ulceration
4. Mucous Chyme/Mummified Flesh
5. Bloated Corpses in a State of Putrefaction
6. Dissolve in Putrescence
7. Extra Uterine Pregnancy
8. Ptomaine Poisoning
9. Flesh... Is What I Need
10. Satisfaction (In the Morgue)
11. Into the Dungeon
12. Masked Killer
******************************
Total playing time: 38:26




Extended info
+SCANS
Tracks 01-06: Embryotic Uterogestation [Demo 1989]
Tracks 07-08: Extra Uterine Pregnancy [7"EP 1989]
Tracks 09-12: Flesh... Is What I Need [Demo 1991]


Technical info
(IMG:https://metalarea.org/images/spectrogram/2018_Feb/8a7728bead080083d5cb03f8398942d3.png)
Input File: 07. Extra Uterine Pregnancy.mp3
Channels : 2
Sample Rate : 44100
Precision : 16-bit
Duration : 00:03:54.32 = 10333380 samples = 17573.8 CDDA sectors
File Size : 9.37M
Bit Rate : 320k
Sample Encoding: MPEG audio (layer I, II or III)
Comments :
Title=Extra Uterine Pregnancy
Artist=Disastrous Murmur
Album=Skinning Beginning (1989-1991)
Tracknumber=07
Year=2018
Genre=Death Metal



Register


Go to the top of the page
  Insert nick Quick quote
+Quote Post
 
Start new topic
Replies (1 - 2)
post Feb 1 2018, 15:55:53
Post #2

Два Литра
**
Group: Завсегдатай
Posts: 184
Releases: 8
On Forums: 1 year 11 months
Thanks: 112 time(s)
Russian Federation


Хорошая олда
Go to the top of the page
  Insert nick Quick quote
+Quote Post
post Feb 3 2018, 15:41:11
Post #3

Old School Metal
**************
Group: Металариец
Posts: 2,555
Releases: 0
From: г. Минск
On Forums: 9 years 3 months
Thanks: 5100 time(s)
Belarus







Go to the top of the page
  Insert nick Quick quote
+Quote Post

Reply to this topicStart new topic
2 User(s) are reading this topic (2 Guests and 0 Anonymous Users)
0 Members:

 



- Lo-Fi Version Support form
Copyrights and abuse reports form
Time is now: 22nd June 2018 - 02:14:29