Welcome Guest ( Log In | Register )

> Vultures Shall Gather - The Master Species [ep] (2018), Deathcore
post Feb 1 2018, 13:12:41
Post #1

Serial Uploader
Group Icon
Group: V.I.P
Posts: 35,408
Releases: 33620
From: Lithuania
On Forums: 11 years 1 week
Thanks: 385973 time(s)
Lithuania


(IMG:https://metalarea.org/images/audiocovers/2018_Feb/acov_tid301300_thumb.jpg)

*Artist: Vultures Shall Gather
*Album: The Master Species [ep]
*Year: 2018
*Genre: Deathcore
*Country: United States (IMG:https://metalarea.org/forum/style_images/flags/United%20States.png)
*Format: mp3@CBR320kbps
*Size: 37MB

Tracklist:
01. Master Species
02. Hangmans Tree
03. The Purge
04. Pale Icon
******************************
Total playing time: 16:15



Technical info
(IMG:https://metalarea.org/images/spectrogram/2018_Feb/3914abf504248b8a6070ae86baf8e519.png)
Input File: 02. Hangmans Tree.mp3
Channels : 2
Sample Rate : 44100
Precision : 16-bit
Duration : 00:04:03.93 = 10757357 samples = 18294.8 CDDA sectors
File Size : 9.84M
Bit Rate : 323k
Sample Encoding: MPEG audio (layer I, II or III)
Comments :
Title=Hangmans Tree
Artist=Vultures Shall Gather
Album=The Master Species
Tracknumber=2/4
Year=2018
Genre=9
Discnumber=1/1



Register


Go to the top of the page
  Insert nick Quick quote
+Quote Post
 
Start new topic
Replies (1 - 1)
post Mar 2 2019, 19:44:54
Post #2

Три Литра
***
Group: Завсегдатай
Posts: 229
Releases: 0
From: The Windsor Wastelands, Vinland
On Forums: 11 years 7 months
Thanks: 6 time(s)
Canada


reupload?
Go to the top of the page
  Insert nick Quick quote
+Quote Post

Reply to this topicStart new topic
1 User(s) are reading this topic (1 Guests and 0 Anonymous Users)
0 Members:

 



- Lo-Fi Version Support form
Copyrights and abuse reports form
Time is now: 16th June 2019 - 22:37:37