Welcome Guest ( Log In | Register )

> И неформату есть предел.

Рэп/хип-хоп/шансон/поп удаляются. Для них есть свои порталы.

> Jethro Tull - Songs From The Wood (1977), Progressive Rock (D9)
post Feb 1 2018, 14:56:09
Post #1

Правь статус, ####!111
**************
Group: Металариец
Posts: 30,441
Releases: 470
On Forums: 8 years 8 months
Thanks: 23395 time(s)
Russian Federation


(IMG:http://metalarea.org/images/audiocovers/2018_Feb/acov_tid301311_thumb.jpg)

*Artist: Jethro Tull
*Album: Songs From The Wood
*Year: 1977
*Genre: Progressive Rock
*Country: United Kingdom (IMG:http://metalarea.org/forum/style_images/flags/United%20Kingdom.png)
*Format: mp3@CBR320kbps
*Size: 95MB

Tracklist:
01. Songs From The Wood 04:53
02. Jack-In-The-Green 02:28
03. Cup Of Wonder 04:31
04. Hunting Girl 05:10
05. Ring Out, Solstice Bells 03:43
06. Velvet Green 06:01
07. The Whistler 03:31
08. Pibroch (Cap In Hand) 08:32
09. Fire At Midnight 02:27
******************************
Total playing time: 41:16

(IMG:http://metalarea.org/images/youtube.png)

Technical info
(IMG:http://metalarea.org/images/spectrogram/2018_Feb/9fcfa0c2df489e33bafebd1de9a17930.png)
Input File: 01. Songs From The Wood.mp3
Channels : 2
Sample Rate : 44100
Precision : 16-bit
Duration : 00:04:53.00 = 12921300 samples = 21975 CDDA sectors
File Size : 11.8M
Bit Rate : 321k
Sample Encoding: MPEG audio (layer I, II or III)
Comments :
Title=Songs From The Wood
Artist=Jethro Tull
Album=Songs From The Wood
Tracknumber=01/09
Year=1977
Genre=Progressive Rock



Register


Thanks:
(1) Aresson,
Вернуться к началу страницы
  Insert nick Quick quote
+Цитировать сообщение
 
Создать новую тему
Replies (1 - 2)
post Feb 1 2018, 15:42:28
Post #2

Правь статус, ####!111
**************
Group: Металариец
Posts: 30,441
Releases: 470
On Forums: 8 years 8 months
Thanks: 23395 time(s)
Russian Federation


Очень приятный и мягкий альбом с уклоном в фолк. Один из любимых у него и лучших в 70-х для меня.

@320

Register


Thanks:
Вернуться к началу страницы
  Insert nick Quick quote
+Цитировать сообщение
post Feb 1 2018, 20:08:39
Post #3

Правь статус, ####!111
**************
Group: Металариец
Posts: 30,441
Releases: 470
On Forums: 8 years 8 months
Thanks: 23395 time(s)
Russian Federation


Jack-In-The-Green (IMG:style_emoticons/default/pray.gif)
Вернуться к началу страницы
  Insert nick Quick quote
+Цитировать сообщение

ОтветитьСоздать новую тему
2 User(s) are reading this topic (2 Guests and 0 Anonymous Users)
0 Members:

 



- Lo-Fi Version Support form
Copyrights and abuse reports form
Time is now: 25th February 2018 - 12:44:50