Welcome Guest ( Log In | Register )

> И неформату есть предел.

Рэп/хип-хоп/шансон/поп удаляются. Для них есть свои порталы.

> Jethro Tull - Heavy Horses (1978), Progressive Rock (D9)
post Feb 1 2018, 14:58:47
Post #1
BAN
Banned till
Aug 5 2018, 14:02:28



(IMG:http://metalarea.org/images/audiocovers/2018_Feb/acov_tid301312_thumb.jpg)

*Artist: Jethro Tull
*Album: Heavy Horses
*Year: 1978
*Genre: Progressive Rock
*Country: United Kingdom (IMG:http://metalarea.org/forum/style_images/flags/United%20Kingdom.png)
*Format: mp3@CBR320kbps
*Size: 98MB

Tracklist:
01. ... And The Mouse Police Never Sleeps 03:11
02. Acres Wild 03:22
03. No Lullaby 07:53
04. Moths 03:25
05. Journeyman 03:54
06. Rover 04:13
07. One Brown Mouse 03:20
08. Heavy Horses 08:57
09. Weathercock 04:02
******************************
Total playing time: 42:17

(IMG:http://metalarea.org/images/youtube.png)

Technical info
(IMG:http://metalarea.org/images/spectrogram/2018_Feb/bfa5336e20abc4c1a96cf31a0b1be61d.png)
Input File: 08. Heavy Horses.mp3
Channels : 2
Sample Rate : 44100
Precision : 16-bit
Duration : 00:08:57.00 = 23681700 samples = 40275 CDDA sectors
File Size : 21.5M
Bit Rate : 320k
Sample Encoding: MPEG audio (layer I, II or III)
Comments :
Title=Heavy Horses
Artist=Jethro Tull
Album=Heavy Horses
Tracknumber=08/09
Year=1978
Genre=Progressive Rock



Register


Thanks:
Go to the top of the page
  Insert nick Quick quote
+Quote Post
 
Start new topic
Replies (1 - 6)
post Feb 1 2018, 15:56:31
Post #2
BAN
Banned till
Aug 5 2018, 14:02:28



Крутой альбом. Сдвинулись в сторону с курса предыдущего, но не стали хуже.

@320

Register


Thanks:
(1) stub888,
Go to the top of the page
  Insert nick Quick quote
+Quote Post
post Feb 1 2018, 20:08:16
Post #3
BAN
Banned till
Aug 5 2018, 14:02:28



Heavy Horses (IMG:style_emoticons/default/pray.gif)


Thanks:
(1) Ghostb,
Go to the top of the page
  Insert nick Quick quote
+Quote Post
post Feb 1 2018, 21:33:54
Post #4

Шесть Литров
******
Group: Металариец
Posts: 572
Releases: 0
From: Харьков
On Forums: 8 years 9 months
Thanks: 180 time(s)
Ukraine


Сильнейший альбом, мой фаворит у группы. Все четные треки в числе самых любимых в их дискографии.
Go to the top of the page
  Insert nick Quick quote
+Quote Post
post Feb 1 2018, 21:34:54
Post #5
BAN
Banned till
Aug 5 2018, 14:02:28



ЦИТАТА(Ghostb @ Feb 2 2018, 00:33:54) *
Сильнейший альбом, мой фаворит у группы. Все четные треки в числе самых любимых в их дискографии.


Купил когда то на диске. Альбом вроде и неплохой, но фолковый вектор хоть и хорош, но мне ближе прогрессивный все же.
Go to the top of the page
  Insert nick Quick quote
+Quote Post
post Feb 1 2018, 22:02:40
Post #6

Шесть Литров
******
Group: Металариец
Posts: 572
Releases: 0
From: Харьков
On Forums: 8 years 9 months
Thanks: 180 time(s)
Ukraine


ЦИТАТА(vosmidesijatye @ Feb 1 2018, 22:34:54) *
фолковый вектор хоть и хорош, но мне ближе прогрессивный все же

Ну, от прогрессива они здесь тоже далеко не отходили, достаточно аранжировки послушать.
Go to the top of the page
  Insert nick Quick quote
+Quote Post
post Feb 1 2018, 22:10:08
Post #7
BAN
Banned till
Aug 5 2018, 14:02:28



ЦИТАТА(Ghostb @ Feb 2 2018, 01:02:40) *
Ну, от прогрессива они здесь тоже далеко не отходили, достаточно аранжировки послушать.


Не буду спорить, но все же это не 72 и 73, доля фолканутости на этих двух релизах велика, что впрочем не делает их плохими.


Thanks:
(1) Ghostb,
Go to the top of the page
  Insert nick Quick quote
+Quote Post

Reply to this topicStart new topic
2 User(s) are reading this topic (2 Guests and 0 Anonymous Users)
0 Members:

 



- Lo-Fi Version Support form
Copyrights and abuse reports form
Time is now: 16th July 2018 - 06:00:53