Welcome Guest ( Log In | Register )

> И неформату есть предел.

Рэп/хип-хоп/шансон/поп удаляются. Для них есть свои порталы.

> Jethro Tull - A Passion Play (1973), Progressive Rock (D9)
post Feb 1 2018, 15:07:33
Post #1

Правь статус, ####!111
**************
Group: Металариец
Posts: 34,734
Releases: 504
On Forums: 9 years 5 months
Thanks: 26760 time(s)
Russian Federation


(IMG:http://metalarea.org/images/audiocovers/2018_Feb/acov_tid301314_thumb.jpg)

*Artist: Jethro Tull
*Album: A Passion Play
*Year: 1973
*Genre: Progressive Rock
*Country: United Kingdom (IMG:http://metalarea.org/forum/style_images/flags/United%20Kingdom.png)
*Format: mp3@CBR320kbps
*Size: 104MB

Tracklist:
01. A Passion Play Part I 21:34
02. A Passion Play Part II 23:30
******************************
Total playing time: 45:04

(IMG:http://metalarea.org/images/youtube.png)

Technical info
(IMG:http://metalarea.org/images/spectrogram/2018_Feb/7a0c0f5ec7079cc35d62100673ec457a.png)
Input File: 01. A Passion Play Part I.mp3
Channels : 2
Sample Rate : 44100
Precision : 16-bit
Duration : 00:21:34.00 = 57065400 samples = 97050 CDDA sectors
File Size : 51.8M
Bit Rate : 320k
Sample Encoding: MPEG audio (layer I, II or III)
Comments :
Title=A Passion Play Part I
Artist=Jethro Tull
Album=A Passion Play
Tracknumber=01/02
Year=1973
Genre=Progressive Rock



Register


Thanks:
(1) Aresson,
Go to the top of the page
  Insert nick Quick quote
+Quote Post
 
Start new topic
Replies (1 - 1)
post Feb 1 2018, 16:01:01
Post #2

Правь статус, ####!111
**************
Group: Металариец
Posts: 34,734
Releases: 504
On Forums: 9 years 5 months
Thanks: 26760 time(s)
Russian Federation


Второе грандиознейшее творение ДТ в 70-х. Самая настоящая концептуальная работа. Заковыристее и мудрёнее прошлого, но уровень по прежнему высочайший (IMG:style_emoticons/default/20.gif)

@320

Register


Thanks:
Go to the top of the page
  Insert nick Quick quote
+Quote Post

Reply to this topicStart new topic
1 User(s) are reading this topic (1 Guests and 0 Anonymous Users)
0 Members:

 



- Lo-Fi Version Support form
Copyrights and abuse reports form
Time is now: 21st November 2018 - 18:43:34