Welcome Guest ( Log In | Register )

> И неформату есть предел.

Рэп/хип-хоп/шансон/поп удаляются. Для них есть свои порталы.

> Jethro Tull - Crest Of A Knave (1987), Progressive Rock (D9)
post Feb 1 2018, 15:10:44
Post #1

Правь статус, ####!111
**************
Group: Металариец
Posts: 30,441
Releases: 470
On Forums: 8 years 8 months
Thanks: 23395 time(s)
Russian Federation


(IMG:http://metalarea.org/images/audiocovers/2018_Feb/acov_tid301315_thumb.jpg)

*Artist: Jethro Tull
*Album: Crest Of A Knave
*Year: 1987
*Genre: Progressive Rock
*Country: United Kingdom (IMG:http://metalarea.org/forum/style_images/flags/United%20Kingdom.png)
*Format: mp3@CBR320kbps
*Size: 112MB

Tracklist:
01. Steel Monkey 03:36
02. Farm On The Freeway 06:29
03. Jump Start 04:52
04. Said She Was A Dancer 03:40
05. Dogs In The Midwinter 04:33
06. Budapest 10:02
07. Mountain Men 06:20
08. The Waking Edge 04:46
09. Raising Steam 04:06
******************************
Total playing time: 48:24

(IMG:http://metalarea.org/images/youtube.png)

Technical info
(IMG:http://metalarea.org/images/spectrogram/2018_Feb/57b36bf9cc9a848e71061689b1d5ae16.png)
Input File: 01. Steel Monkey.mp3
Channels : 2
Sample Rate : 44100
Precision : 16-bit
Duration : 00:03:36.00 = 9525600 samples = 16200 CDDA sectors
File Size : 8.70M
Bit Rate : 322k
Sample Encoding: MPEG audio (layer I, II or III)
Comments :
Title=Steel Monkey
Artist=Jethro Tull
Album=Crest Of A Knave
Tracknumber=01/09
Year=1987
Genre=Progressive Rock



Register


Thanks:
(1) Aresson,
Вернуться к началу страницы
  Insert nick Quick quote
+Цитировать сообщение
 
Создать новую тему
Replies (1 - 3)
post Feb 1 2018, 15:57:46
Post #2

Правь статус, ####!111
**************
Group: Металариец
Posts: 30,441
Releases: 470
On Forums: 8 years 8 months
Thanks: 23395 time(s)
Russian Federation


Ушли от непонятых многими электронных экспериментов, вернулись к року. Хорошо!

@320

Register


Thanks:
Вернуться к началу страницы
  Insert nick Quick quote
+Цитировать сообщение
post Feb 1 2018, 20:04:09
Post #3

Heavy metal to the world (c)
**************
Group: Металариец
Posts: 3,353
Releases: 1
From: Питер
On Forums: 11 years 3 days
Thanks: 1297 time(s)
Russian Federation


ЦИТАТА(vosmidesijatye @ Feb 1 2018, 17:10:44) *

Вернуться к началу страницы
  Insert nick Quick quote
+Цитировать сообщение
post Feb 1 2018, 20:09:32
Post #4

Правь статус, ####!111
**************
Group: Металариец
Posts: 30,441
Releases: 470
On Forums: 8 years 8 months
Thanks: 23395 time(s)
Russian Federation


Про Ферму забыл (IMG:style_emoticons/default/smile1.gif)
Вернуться к началу страницы
  Insert nick Quick quote
+Цитировать сообщение

ОтветитьСоздать новую тему
2 User(s) are reading this topic (2 Guests and 0 Anonymous Users)
0 Members:

 



- Lo-Fi Version Support form
Copyrights and abuse reports form
Time is now: 25th February 2018 - 12:57:05