Welcome Guest ( Log In | Register )

> И неформату есть предел.

Рэп/хип-хоп/шансон/поп удаляются. Для них есть свои порталы.

> Bronson A.D. - Warpath (2018), Thrash/Groove Metal
post Feb 1 2018, 16:44:49
Post #1

Правь статус, ####!111
**************
Group: Металариец
Posts: 15,028
Releases: 10294
From: Г.Харьков
On Forums: 6 years 6 months
Thanks: 169959 time(s)
Unknown


(IMG:https://metalarea.org/images/audiocovers/2018_Feb/acov_tid301322_thumb.jpg)

*Artist: Bronson A.D.
*Album: Warpath
*Year: 2018
*Genre: Thrash/Groove Metal
*Country: Germany (IMG:https://metalarea.org/forum/style_images/flags/Germany.png)
*Format: mp3@CBR320kbps
*Size: 69MB

Tracklist:
01. Harbinger of Death (Intro)
02. After the Impact
03. Horrortrip
04. Nuclear Generation
05. Eat Shit
06. Warpath
07. For the Weak
08. New World Depression
09. Culture
10. Maikäfer flieg (Outro)
******************************
Total playing time: 32:16



Extended info


Technical info
(IMG:https://metalarea.org/images/spectrogram/2018_Feb/0c41d07c0abe04c3ef63497b3e08ef62.png)
Input File: 2 After the Impact.mp3
Channels : 2
Sample Rate : 44100
Precision : 16-bit
Duration : 00:03:06.90 = 8242290 samples = 14017.5 CDDA sectors
File Size : 7.64M
Bit Rate : 327k
Sample Encoding: MPEG audio (layer I, II or III)
Comments :
Title=After the Impact
Artist=Bronson A.D.
Album=Warpath
Tracknumber=2/10
Year=2018
Genre=Metalcore
Discnumber=1/1



Register


Go to the top of the page
  Insert nick Quick quote
+Quote Post
 
Start new topic
Replies (1 - 3)
post Feb 1 2018, 17:39:39
Post #2

Аннигилятор пивА
Group Icon
Group: V.I.P
Posts: 50,468
Releases: 15669
From: Koenigsberg - TILZIT
On Forums: 12 years 5 months
Thanks: 340559 time(s)
Russian Federation


Какой нафиг грув (IMG:style_emoticons/default/1488.gif) это классический Hardcore/Rapcore


Go to the top of the page
  Insert nick Quick quote
+Quote Post
post Feb 1 2018, 17:46:05
Post #3

Маньяк
**********
Group: Металариец
Posts: 1,141
Releases: 1
From: Беларусь
On Forums: 10 years 10 months
Thanks: 433 time(s)
Russian Federation


ЦИТАТА(aesteticvice @ Feb 1 2018, 19:39:39) *
Какой нафиг грув (IMG:style_emoticons/default/1488.gif) это классический Hardcore/Rapcore

все нормально! Тут иногда рэк под видом трэшу постят, и все довольны (IMG:style_emoticons/default/crazy.gif)


Thanks:
Go to the top of the page
  Insert nick Quick quote
+Quote Post
post Feb 1 2018, 17:49:01
Post #4

_ - = # Thrashogolic # = - _ ... а давайте поржём все вместе
**************
Group: Металариец
Posts: 21,035
Releases: 4444
From: 404
On Forums: 8 years 5 months
Thanks: 27265 time(s)
Ukraine


aesteticvice, под Madball, Biohazard, Bonesaw - норм качает (IMG:style_emoticons/default/banana.gif)
Go to the top of the page
  Insert nick Quick quote
+Quote Post

Reply to this topicStart new topic
1 User(s) are reading this topic (1 Guests and 0 Anonymous Users)
0 Members:

 



- Lo-Fi Version Support form
Copyrights and abuse reports form
Time is now: 21st November 2018 - 18:43:53