Welcome Guest ( Log In | Register )

> И неформату есть предел.

Рэп/хип-хоп/шансон/поп удаляются. Для них есть свои порталы.

> Frank Zappa - The Grand Wazoo (1972), Experimental/Avantgarde Rock (D15)
post Feb 1 2018, 21:44:40
Post #1

Правь статус, ####!111
**************
Group: Металариец
Posts: 30,441
Releases: 470
On Forums: 8 years 8 months
Thanks: 23395 time(s)
Russian Federation


(IMG:http://metalarea.org/images/audiocovers/2018_Feb/acov_tid301342_thumb.jpg)

*Artist: Frank Zappa
*Album: The Grand Wazoo
*Year: 1972
*Genre: Experimental/Avantgarde Rock
*Country: United States (IMG:http://metalarea.org/forum/style_images/flags/United%20States.png)
*Format: mp3@CBR320kbps
*Size: 79MB

Tracklist:
01. For Calvin (And His Next Two Hitch-Hikers) 06:06
02. The Grand Wazoo 13:20
03. Cletus Awreetus-Awrightus 02:57
04. Eat That Question 06:43
05. Blessed Relief 07:59
******************************
Total playing time: 37:05

(IMG:http://metalarea.org/images/youtube.png)

Technical info
(IMG:http://metalarea.org/images/spectrogram/2018_Feb/54721ea8ccb3c8376e683b27ba7d2a67.png)
Input File: 02 - The Grand Wazoo.mp3
Channels : 2
Sample Rate : 44100
Precision : 16-bit
Duration : 00:13:19.09 = 35239737 samples = 59931.5 CDDA sectors
File Size : 32.0M
Bit Rate : 320k
Sample Encoding: MPEG audio (layer I, II or III)
Comments :
Title=The Grand Wazoo
Artist=Frank Zappa
Album=The Grand Wazoo
Tracknumber=2
Year=1972
Genre=Experimental Rock



Register


Вернуться к началу страницы
  Insert nick Quick quote
+Цитировать сообщение
 
Создать новую тему
Replies (1 - 1)
post Feb 2 2018, 10:48:11
Post #2

Правь статус, ####!111
**************
Group: Металариец
Posts: 30,441
Releases: 470
On Forums: 8 years 8 months
Thanks: 23395 time(s)
Russian Federation


Eat That Question, Blessed Relief - просто сказка, красивейше до опупения (IMG:style_emoticons/default/20.gif)

@320

Register


Thanks:
(1) marilin,
Вернуться к началу страницы
  Insert nick Quick quote
+Цитировать сообщение

ОтветитьСоздать новую тему
2 User(s) are reading this topic (2 Guests and 0 Anonymous Users)
0 Members:

 



- Lo-Fi Version Support form
Copyrights and abuse reports form
Time is now: 25th February 2018 - 12:54:11