Welcome Guest ( Log In | Register )

> И неформату есть предел.

Рэп/хип-хоп/шансон/поп удаляются. Для них есть свои порталы.

> Frank Zappa - Over-Nite Sensation (1973), Experimental/Avantgarde Rock (D15)
post Feb 1 2018, 21:58:07
Post #1

Правь статус, ####!111
**************
Group: Металариец
Posts: 30,821
Releases: 477
On Forums: 8 years 11 months
Thanks: 23853 time(s)
Russian Federation


(IMG:http://metalarea.org/images/audiocovers/2018_Feb/acov_tid301343_thumb.jpg)

*Artist: Frank Zappa
*Album: Over-Nite Sensation
*Year: 1973
*Genre: Experimental/Avantgarde Rock
*Country: United States (IMG:http://metalarea.org/forum/style_images/flags/United%20States.png)
*Format: mp3@CBR320kbps
*Size: 80MB

Tracklist:
01. Camarillo Brillo 03:59
02. I'm the Slime 03:34
03. Dirty Love 02:58
04. Fifty-Fifty 06:09
05. Zomby Woof 05:10
06. Dinah-Moe Humm 06:01
07. Montana 06:35
******************************
Total playing time: 34:26

(IMG:http://metalarea.org/images/youtube.png)

Technical info
(IMG:http://metalarea.org/images/spectrogram/2018_Feb/1d564f071c22e7403dcc7c7ed05359b3.png)
Input File: 01 - Camarillo Brillo.mp3
Channels : 2
Sample Rate : 44100
Precision : 16-bit
Duration : 00:03:59.00 = 10539900 samples = 17925 CDDA sectors
File Size : 9.75M
Bit Rate : 326k
Sample Encoding: MPEG audio (layer I, II or III)
Comments :
Title=Camarillo Brillo
Artist=Frank Zappa
Album=Overnight Sensation
Tracknumber=1
Year=1973
Genre=Experimental Rock



Register


Вернуться к началу страницы
  Insert nick Quick quote
+Цитировать сообщение
 
Создать новую тему
Replies (1 - 1)
post Feb 2 2018, 10:50:05
Post #2

Правь статус, ####!111
**************
Group: Металариец
Posts: 30,821
Releases: 477
On Forums: 8 years 11 months
Thanks: 23853 time(s)
Russian Federation


@320

Register


Thanks:
Вернуться к началу страницы
  Insert nick Quick quote
+Цитировать сообщение

ОтветитьСоздать новую тему
1 User(s) are reading this topic (1 Guests and 0 Anonymous Users)
0 Members:

 



- Lo-Fi Version Support form
Copyrights and abuse reports form
Time is now: 23rd May 2018 - 15:53:01