Welcome Guest ( Log In | Register )

> И неформату есть предел.

Рэп/хип-хоп/шансон/поп удаляются. Для них есть свои порталы.

> Dim - Sense Of Touch [demo] (2001), Atmospheric Ambient/Dungeon Synth
post Feb 2 2018, 11:06:52
Post #1

...
Group Icon
Group: S-moderation team
Posts: 5,434
Releases: 1166
On Forums: 6 years 11 months
Thanks: 27111 time(s)
Unknown


(IMG:http://metalarea.org/images/audiocovers/2018_Feb/acov_tid301367_thumb.jpg)

*Artist: Dim
*Album: Sense Of Touch [demo]
*Year: 2001
*Genre: Atmospheric Ambient/Dungeon Synth
*Country: Ukraine (IMG:http://metalarea.org/forum/style_images/flags/Ukraine.png)
*Format: mp3@CBR320kbps
*Size: 66MB

Tracklist:
01 Epilogue (From Without) 01:50
02 Boredom 03:23
03 Rain 04:12
04 Inspiration 01:41
05 Sorrow 05:18
06 Mist 02:59
07 Disappearing 01:07
08 Loneless 03:17
09 Prologue (Malice) 02:59
10 Sense of Touch 02:14
******************************
Total playing time: 29:00

Extended info
I bought this tape out of curiosity few weeks ago, I couldn't find any info about it on web except that it is Ukranian one man band.
Tape rip + Scans.


Technical info
(IMG:http://metalarea.org/images/spectrogram/2018_Feb/a03572f377031fa23a717a17bb6156e5.png)
Input File: 02 Boredom.mp3
Channels : 2
Sample Rate : 44100
Precision : 16-bit
Duration : 00:03:23.91 = 8992475 samples = 15293.3 CDDA sectors
File Size : 8.16M
Bit Rate : 320k
Sample Encoding: MPEG audio (layer I, II or III)
Comments :
Title=Boredom
Artist=Dim
Album=Sense of Touch
Tracknumber=2
Year=2001
Genre=Dungeon Synth



Register


Вернуться к началу страницы
  Insert nick Quick quote
+Цитировать сообщение
 
Создать новую тему
Replies (1 - 1)
post Feb 2 2018, 18:29:52
Post #2


**********
Group: Металариец
Posts: 1,483
Releases: 14
From: Казань
On Forums: 8 years 5 months
Thanks: 1816 time(s)
Russian Federation


Есть замечательный альбом Liveride - Грезами ночи, печалью дней... Такая же бескрайняя меланхолия в загадках и бесконечных поисках смысла. Не того непонятного смысла жизни, которого как говаривал старина Невзоров - нет и в помине, а того беспощадного, судорожного, мечтательного, о котором писали Стругацкие.
Гарный Данж!


Вернуться к началу страницы
  Insert nick Quick quote
+Цитировать сообщение

ОтветитьСоздать новую тему
2 User(s) are reading this topic (2 Guests and 0 Anonymous Users)
0 Members:

 



- Lo-Fi Version Support form
Copyrights and abuse reports form
Time is now: 25th February 2018 - 12:55:14