Welcome Guest ( Log In | Register )

> И неформату есть предел.

Рэп/хип-хоп/шансон/поп удаляются. Для них есть свои порталы.

> Frank Zappa - Waka/Jawaka (1972), Experimental/Avantgarde Rock (D17)
post Feb 2 2018, 13:33:25
Post #1
BAN
Banned till
Aug 5 2018, 14:02:28



(IMG:http://metalarea.org/images/audiocovers/2018_Feb/acov_tid301380_thumb.jpg)

*Artist: Frank Zappa
*Album: Waka/Jawaka
*Year: 1972
*Genre: Experimental/Avantgarde Rock
*Country: United States (IMG:http://metalarea.org/forum/style_images/flags/United%20States.png)
*Format: mp3@CBR320kbps
*Size: 81MB

Tracklist:
01. Big Swifty 17:22
02. Your Mouth 03:12
03. It Just Might Be a One-Shot Deal 04:16
04. Waka/Jawaka 11:18
******************************
Total playing time: 36:08

(IMG:http://metalarea.org/images/youtube.png)

Technical info
(IMG:http://metalarea.org/images/spectrogram/2018_Feb/a8293b6f34e7b83fb6c9428635a7459f.png)
Input File: 04 - Waka-Jawaka.mp3
Channels : 2
Sample Rate : 44100
Precision : 16-bit
Duration : 00:11:18.07 = 29902975 samples = 50855.4 CDDA sectors
File Size : 27.1M
Bit Rate : 320k
Sample Encoding: MPEG audio (layer I, II or III)
Comments :
Title=Waka/Jawaka
Artist=Frank Zappa
Album=Waka/Jawaka
Tracknumber=4
Year=1972
Genre=17



Register


Go to the top of the page
  Insert nick Quick quote
+Quote Post
 
Start new topic
Replies (1 - 2)
post Feb 2 2018, 15:32:07
Post #2
BAN
Banned till
Aug 5 2018, 14:02:28



Последний трэк - просто изумительный (IMG:style_emoticons/default/20.gif)

@320

Register
Go to the top of the page
  Insert nick Quick quote
+Quote Post
post Feb 5 2018, 22:29:31
Post #3
BAN
Banned till
Aug 5 2018, 14:02:28



Удивительно хоть бы один пупс который котирует прог трэш, эксперимментал метал и т.д. заумь и психодел скачал и написал как ему. Волшебная ведь музыка. Намного интереснее и прогрессивнее большинства якобы умных метал альбомов.


Thanks:
(1) Ghostb,
Go to the top of the page
  Insert nick Quick quote
+Quote Post

Reply to this topicStart new topic
2 User(s) are reading this topic (2 Guests and 0 Anonymous Users)
0 Members:

 



- Lo-Fi Version Support form
Copyrights and abuse reports form
Time is now: 23rd July 2018 - 03:19:31