Welcome Guest ( Log In | Register )

> И неформату есть предел.

Рэп/хип-хоп/шансон/поп удаляются. Для них есть свои порталы.

 
Reply to this topicStart new topic
> Way Station - The Ships (2013), Post-Rock/Modern Art Rock
post Feb 3 2018, 10:56:38
Post #1

Восемь Литров
********
Group: Металариец
Posts: 862
Releases: 5
From: Киев
On Forums: 9 years 6 months
Thanks: 1012 time(s)
Ukraine


(IMG:https://metalarea.org/images/audiocovers/2018_Feb/acov_tid301411_thumb.jpg)

*Artist: Way Station
*Album: The Ships
*Year: 2013
*Genre: Post-Rock/Modern Art Rock
*Country: Ukraine (IMG:https://metalarea.org/forum/style_images/flags/Ukraine.png)
*Format: mp3@CBR320kbps
*Size: 108MB

Tracklist:
1.Voyager 05:44
2.The Noise Was Ended Now 04:34
3.Summer Fog 03:44
4.Road 06:59
5.Dark Sea 05:39
6.Корабли (The Ships) 05:07
7.The Heaven And The Earth 04:21
8.Last Launch Part I 03:32
9.Last Launch Part II 07:07
******************************
Total playing time: 46:47



Extended info
для любителей:
God Is An Astronaut
Sleeping Bear
If These Trees Could Talk
Collapse Under The Empire


Technical info
(IMG:https://metalarea.org/images/spectrogram/2018_Feb/261c1cafd72c60e24933f5d95f58dfc8.png)
Input File: 1. Way Station - Voyager.mp3
Channels : 2
Sample Rate : 44100
Precision : 16-bit
Duration : 00:05:44.65 = 15199109 samples = 25848.8 CDDA sectors
File Size : 15.0M
Bit Rate : 349k
Sample Encoding: MPEG audio (layer I, II or III)
Comments :
Title=Voyager
Artist=Way Station
Album=The Ships
Tracknumber=1
Year=2013
Genre=Post-rock
Discnumber=1/1



Register
Go to the top of the page
  Insert nick Quick quote
+Quote Post

Reply to this topicStart new topic
1 User(s) are reading this topic (1 Guests and 0 Anonymous Users)
0 Members:

 



- Lo-Fi Version Support form
Copyrights and abuse reports form
Time is now: 21st November 2018 - 19:33:44