Welcome Guest ( Log In | Register )

> Правила / Rules

Тут только для чтения лежат низкобитрейтные (<192kbps) релизы, для которых есть аналоги в высокобитрейтных форумах.

Here goes (and stand in read only mode) low bitrate releases (<192kbps) which were already replaced by high bitrate releases in corresponding forums.

Причина закрытия (Borderline1991 10-02-2018): Пламень - Чужие (2017)
 
Closed TopicStart new topic
> Пламень - Чужие (2017), Black Metal (D4)
post Feb 3 2018, 14:34:54
Post #1

Девять Литров
*********
Group: Металариец
Posts: 932
Releases: 783
From: Новороссийск
On Forums: 8 years 1 month
Thanks: 13639 time(s)
Russian Federation


(IMG:https://metalarea.org/images/audiocovers/2018_Feb/acov_tid301424_thumb.jpg)

*Artist: Пламень
*Album: Чужие
*Year: 2017
*Genre: Black Metal
*Country: Russian Federation (IMG:https://metalarea.org/forum/style_images/flags/Russian%20Federation.png)
*Format: mp3@CBR128kbps (IMG:https://metalarea.org/images/bit_low.gif)
*Size: 26MB

Tracklist:
01. Мы 02:26
02. В Потустороннее... 03:47
03. Одержимость 03:49
04. У Врат Вечной Ночи 01:25
05. Крепости Истины 04:10
06. Пилигрим 03:36
07. Песнь Падшего Сердца 04:14
08. Скалы Солнца 03:36
09. Эхо Пожаров 01:23
******************************
Total playing time: 28:31



Technical info
(IMG:https://metalarea.org/images/spectrogram/2018_Feb/bbfd53e59b0c409bde57bcc2a27778fe.png)
Input File: 02. В Потустороннее....mp3
Channels : 2
Sample Rate : 44100
Precision : 16-bit
Duration : 00:03:47.36 = 10026532 samples = 17051.9 CDDA sectors
File Size : 3.64M
Bit Rate : 128k
Sample Encoding: MPEG audio (layer I, II or III)
Comments :
Title=В Потустороннее...
Artist=Пламень
Album=Чужие
Tracknumber=02
Year=2017
Genre=Black Metal



Register


Go to the top of the page
  Insert nick Quick quote
+Quote Post

Причина закрытия (Borderline1991 10-02-2018): Пламень - Чужие (2017)
Closed TopicStart new topic
1 User(s) are reading this topic (1 Guests and 0 Anonymous Users)
0 Members:

 



- Lo-Fi Version Support form
Copyrights and abuse reports form
Time is now: 17th June 2019 - 06:07:59