Welcome Guest ( Log In | Register )

> Правила / Rules

Тут только для чтения лежат низкобитрейтные (<192kbps) релизы, для которых есть аналоги в высокобитрейтных форумах.

Here goes (and stand in read only mode) low bitrate releases (<192kbps) which were already replaced by high bitrate releases in corresponding forums.

Причина закрытия (Хогги 14-02-2018):
 
Closed TopicStart new topic
> Mördrot - Immoral Blasphemies (2018), Death Metal
post Feb 4 2018, 20:02:06
Post #1

Мегаманьяк
***********
Group: Металариец
Posts: 1,782
Releases: 1549
From: Одесса
On Forums: 11 years 1 week
Thanks: 12887 time(s)
Ukraine


(IMG:http://metalarea.org/images/audiocovers/2018_Feb/acov_tid301488_thumb.jpg)

*Artist: Mördrot
*Album: Immoral Blasphemies
*Year: 2018
*Genre: Death Metal
*Country: United States (IMG:http://metalarea.org/forum/style_images/flags/United%20States.png)
*Format: mp3@CBR128kbps (IMG:http://metalarea.org/images/bit_low.gif)
*Size: 30MB

Tracklist:
1. Sacrificial Fires 02:30
2. Casket Reposession 01:58
3. Murderia 03:29
4. Wretched 03:38
5. For Survival 03:06
6. Unburied 02:27
7. Soul Expulsion 02:55
8. Skinned 02:42
9. Condemned Undead 03:19
10. Before the Rot 03:00
11. Immoral Blasphemies 02:27
******************************
Total playing time: 31:31



Extended info
Line - up:

Nick Donner - Guitars, Vocals (tracks 1-6) (Despise, ex-Mördwolf)
Mitch Robbie - Drums (Despise, ex-Mördwolf)
Brian J. Huebner - Bass, Vocals (tracks 1-6), Guitars, Vocals (tracks 7-11) (Cold Colours, Vorpal Bunny, ex-Baal Therocles, ex-Mördwolf, ex-Seventh Calling, ex-Epicurean, ex-Inflict)
Vern Sav DeFoe - Bass (tracks 7-11) (War//Plague, ex-Wraithian, ex-Mördwolf)

(IMG:https://www.metal-archives.com/images/3/5/4/0/3540435870_photo.jpg?4114)


Technical info
(IMG:http://metalarea.org/images/spectrogram/2018_Feb/ff1f60351e8f4cd1df5ee9c5c6cc8dd2.png)
Input File: 04. Wretched.mp3
Channels : 2
Sample Rate : 44100
Precision : 16-bit
Duration : 00:03:38.29 = 9626633 samples = 16371.8 CDDA sectors
File Size : 3.50M
Bit Rate : 128k
Sample Encoding: MPEG audio (layer I, II or III)
Comments :
Title=Wretched
Artist=Mördrot
Album=Immoral Blasphemies
Tracknumber=04
Year=2018
Genre=22



Register


Thanks:
Go to the top of the page
  Insert nick Quick quote
+Quote Post

Причина закрытия (Хогги 14-02-2018):
Closed TopicStart new topic
1 User(s) are reading this topic (1 Guests and 0 Anonymous Users)
0 Members:

 



- Lo-Fi Version Support form
Copyrights and abuse reports form
Time is now: 17th June 2019 - 06:34:39