Welcome Guest ( Log In | Register )

> И неформату есть предел.

Рэп/хип-хоп/шансон/поп удаляются. Для них есть свои порталы.

> Frank Zappa - One Size Fits All (1975), Experimental/Avantgarde Rock (D18)
post Feb 6 2018, 13:37:11
Post #1

Правь статус, ####!111
**************
Group: Металариец
Posts: 30,441
Releases: 470
On Forums: 8 years 8 months
Thanks: 23395 time(s)
Russian Federation


(IMG:http://metalarea.org/images/audiocovers/2018_Feb/acov_tid301555_thumb.jpg)

*Artist: Frank Zappa
*Album: One Size Fits All
*Year: 1975
*Genre: Experimental/Avantgarde Rock
*Country: United States (IMG:http://metalarea.org/forum/style_images/flags/United%20States.png)
*Format: mp3@CBR320kbps
*Size: 93MB

Tracklist:
01. Inca Roads 08:45
02. Can't Afford No Shoes 02:38
03. Sofa No. 1 02:39
04. Po-Jama People 07:39
05. Florentine Pogen 05:27
06. Evelyn, a Modified Dog 01:04
07. San Ber'dino 05:57
08. Andy 06:04
09. Sofa No. 2 02:42
******************************
Total playing time: 42:55

(IMG:http://metalarea.org/images/youtube.png)

Technical info
(IMG:http://metalarea.org/images/spectrogram/2018_Feb/4f361e48922906293d45c84406ab7623.png)
Input File: 01 - Inca Roads.mp3
Channels : 2
Sample Rate : 44100
Precision : 16-bit
Duration : 00:08:45.01 = 23152985 samples = 39375.8 CDDA sectors
File Size : 21.0M
Bit Rate : 320k
Sample Encoding: MPEG audio (layer I, II or III)
Comments :
Title=Inca Roads
Artist=Frank Zappa
Album=One Size Fits All
Tracknumber=1
Year=1975
Genre=92



Register


Вернуться к началу страницы
  Insert nick Quick quote
+Цитировать сообщение
 
Создать новую тему
Replies (1 - 6)
post Feb 6 2018, 13:48:30
Post #2

Правь статус, ####!111
**************
Group: Металариец
Posts: 30,441
Releases: 470
On Forums: 8 years 8 months
Thanks: 23395 time(s)
Russian Federation


@320

Register


Thanks:
Вернуться к началу страницы
  Insert nick Quick quote
+Цитировать сообщение
post Feb 6 2018, 14:01:28
Post #3

Правь статус, ####!111
**************
Group: Металариец
Posts: 30,441
Releases: 470
On Forums: 8 years 8 months
Thanks: 23395 time(s)
Russian Federation


Хорошая работа. Inca Roads - офигительнейший типично "запповский" инструментал, разбавленный слегонца фирменной болтологией, которая, однако, не мешает прослушиванию, но, наоборот, добавляет к эмоциональному спектру. Sofa No. 1 также очень крутой мини-инструментал.
Вернуться к началу страницы
  Insert nick Quick quote
+Цитировать сообщение
post Feb 9 2018, 21:20:21
Post #4

Пять Литров
*****
Group: Металариец
Posts: 434
Releases: 6
From: екб
On Forums: 12 years 4 months
Thanks: 107 time(s)
Russian Federation


Наконец-то с Заппой ознакомлюсь, раз тема такая пошла. Собственно, давно хотел, но обширность дискографии отталкивала.
Вернуться к началу страницы
  Insert nick Quick quote
+Цитировать сообщение
post Feb 9 2018, 22:36:43
Post #5

Шесть Литров
******
Group: Металариец
Posts: 577
Releases: 0
On Forums: 8 years 11 months
Thanks: 201 time(s)
Antarctica


Я вот тоже, при всей прожорливости, (без)сознательно обхожу его стороной по сей день. Не исключено - потому что пока не услышал компетентных рекоммендаций от 80-го. С чего посоветуешь пристрастится?
Вернуться к началу страницы
  Insert nick Quick quote
+Цитировать сообщение
post Feb 9 2018, 23:27:41
Post #6

242
**
Group: Завсегдатай
Posts: 177
Releases: 1
From: Полтава
On Forums: 7 years 5 months
Thanks: 110 time(s)
Ukraine


Не с рекомендаций 80-го точно (IMG:style_emoticons/default/1488.gif) . Такто диско у Заппы не такая уж больша, просто надо чОтко представлят себе две вещи - временные периоды творчества и разновидности собсно альбомов. После этого просто выбираешь интересующее и спокойно пыришь.
Вернуться к началу страницы
  Insert nick Quick quote
+Цитировать сообщение
post Feb 12 2018, 14:27:54
Post #7

Правь статус, ####!111
**************
Group: Металариец
Posts: 30,441
Releases: 470
On Forums: 8 years 8 months
Thanks: 23395 time(s)
Russian Federation


ЦИТАТА(mittal @ Feb 10 2018, 01:36:43) *
Я вот тоже, при всей прожорливости, (без)сознательно обхожу его стороной по сей день. Не исключено - потому что пока не услышал компетентных рекоммендаций от 80-го. С чего посоветуешь пристрастится?


Joe`s Garage // Hot Rats // The Grand Wazoo. А вообще у него все альбомы, что здесь выложены, интересны по своему.
Вернуться к началу страницы
  Insert nick Quick quote
+Цитировать сообщение

ОтветитьСоздать новую тему
1 User(s) are reading this topic (1 Guests and 0 Anonymous Users)
0 Members:

 



- Lo-Fi Version Support form
Copyrights and abuse reports form
Time is now: 25th February 2018 - 12:42:47