Welcome Guest ( Log In | Register )

> И неформату есть предел.

Рэп/хип-хоп/шансон/поп удаляются. Для них есть свои порталы.

> АукцЫон - На Солнце (2016), Psychedelic Rock/Jazz Rock (D7)
post Feb 6 2018, 21:45:35
Post #1

Правь статус, ####!111
**************
Group: Металариец
Posts: 30,441
Releases: 470
On Forums: 8 years 8 months
Thanks: 23395 time(s)
Russian Federation


(IMG:http://metalarea.org/images/audiocovers/2018_Feb/acov_tid301581_thumb.jpg)

*Artist: АукцЫон
*Album: На Солнце
*Year: 2016
*Genre: Psychedelic Rock/Jazz Rock
*Country: Russian Federation (IMG:http://metalarea.org/forum/style_images/flags/Russian%20Federation.png)
*Format: mp3@CBR320kbps
*Size: 141MB

Tracklist:
01. Сынок 06:05
02. И день и ночь 09:45
03. Пропал 07:16
04. Луна упала 06:37
05. Чайки 07:02
06. Плыть 07:09
07. На Солнце 08:06
08. Мир тает 10:27
******************************
Total playing time: 1:02:27

(IMG:http://metalarea.org/images/youtube.png)

Technical info
(IMG:http://metalarea.org/images/spectrogram/2018_Feb/f5d56e7ab4d2d7a14107ec40efd7f39c.png)
Input File: 07. На Солнце.mp3
Channels : 2
Sample Rate : 44100
Precision : 16-bit
Duration : 00:08:06.11 = 21437407 samples = 36458.2 CDDA sectors
File Size : 19.6M
Bit Rate : 323k
Sample Encoding: MPEG audio (layer I, II or III)
Comments :
Title=На Солнце
Artist=АукцЫон
Album=На Солнце [GEO 099 CD]
Tracknumber=07
Year=2016
Genre=Avant-garde Rock



Register


Thanks:
Вернуться к началу страницы
  Insert nick Quick quote
+Цитировать сообщение
 
Создать новую тему
Replies (1 - 4)
post Feb 7 2018, 08:55:15
Post #2

Watch The Water
********
Group: Металариец
Posts: 892
Releases: 30
On Forums: 11 years 5 days
Thanks: 1184 time(s)
El Salvador


Слабый альбом, вообще не понял, что это и зачем. "Девушки поют" был, наверное, последним их слушабельным релизом. Сольники Федорова тоже что-то не впечатляют. Или он исписался, или я остыл.
Вернуться к началу страницы
  Insert nick Quick quote
+Цитировать сообщение
post Feb 7 2018, 09:54:12
Post #3

а ты попал в даунтаун
********
Group: Металариец
Posts: 845
Releases: 45
From: Москва
On Forums: 8 years 10 months
Thanks: 2631 time(s)
Russian Federation


Лично мне и "Юла" вполне вкатила, а сабж послушать так до сих пор и не собрался (IMG:style_emoticons/default/1488.gif)
Вернуться к началу страницы
  Insert nick Quick quote
+Цитировать сообщение
post Feb 7 2018, 10:39:05
Post #4

Правь статус, ####!111
**************
Group: Металариец
Posts: 30,441
Releases: 470
On Forums: 8 years 8 months
Thanks: 23395 time(s)
Russian Federation


@320

Register


Thanks:
(2) abob, marilin,
Вернуться к началу страницы
  Insert nick Quick quote
+Цитировать сообщение
post Feb 7 2018, 12:02:55
Post #5

Четыре Литра
****
Group: Металариец
Posts: 366
Releases: 0
From: Харьков
On Forums: 8 years 4 months
Thanks: 95 time(s)
Ukraine


Отличный альбом.

ЦИТАТА(Njelfur @ Feb 7 2018, 09:55:15) *
Сольники Федорова тоже что-то не впечатляют. Или он исписался, или я остыл

"Псалмы" был просто шикарен.
Вернуться к началу страницы
  Insert nick Quick quote
+Цитировать сообщение

ОтветитьСоздать новую тему
1 User(s) are reading this topic (1 Guests and 0 Anonymous Users)
0 Members:

 



- Lo-Fi Version Support form
Copyrights and abuse reports form
Time is now: 25th February 2018 - 12:48:28