Welcome Guest ( Log In | Register )

> И неформату есть предел.

Рэп/хип-хоп/шансон/поп удаляются. Для них есть свои порталы.

> АукцЫон - Вернись в Сорренто (1986), Psychedelic Rock/Jazz Rock (D8)
post Feb 7 2018, 11:02:01
Post #1
BAN
Banned till
Aug 5 2018, 14:02:28



(IMG:http://metalarea.org/images/audiocovers/2018_Feb/acov_tid301593_thumb.jpg)

*Artist: АукцЫон
*Album: Вернись в Сорренто
*Year: 1986
*Genre: Psychedelic Rock/Jazz Rock
*Country: Russian Federation (IMG:http://metalarea.org/forum/style_images/flags/Russian%20Federation.png)
*Format: mp3@CBR320kbps
*Size: 80MB

Tracklist:
01. Вернись в Сорренто 01:48
02. Чудный вечер 03:18
03. Книга учёта жизни 04:37
04. Волчица 04:31
05. Женщина 05:10
06. Деньги это бумага 03:25
07. Радиодиверсия 04:10
08. Что делать 06:09
09. Рабочее утро 02:16
******************************
Total playing time: 35:24

(IMG:http://metalarea.org/images/youtube.png)

Technical info
(IMG:http://metalarea.org/images/spectrogram/2018_Feb/c3919ec9faa9b0602885babf415d6cde.png)
Input File: 01. Вернись в Сорренто.mp3
Channels : 2
Sample Rate : 44100
Precision : 16-bit
Duration : 00:01:47.53 = 4742205 samples = 8064.97 CDDA sectors
File Size : 4.38M
Bit Rate : 326k
Sample Encoding: MPEG audio (layer I, II or III)
Comments :
Title=Вернись в Сорренто
Artist=АукцЫон
Album=Вернись в Сорренто [1997, CDMAN 016-97]
Tracknumber=01
Year=1986
Genre=Avant-garde Rock



Register


Go to the top of the page
  Insert nick Quick quote
+Quote Post
 
Start new topic
Replies (1 - 2)
post Feb 7 2018, 13:04:27
Post #2
BAN
Banned till
Aug 5 2018, 14:02:28



@320

Register


Thanks:
(1) marilin,
Go to the top of the page
  Insert nick Quick quote
+Quote Post
post Feb 8 2018, 05:23:08
Post #3

Враг Газпрома
**************
Group: Металариец
Posts: 5,369
Releases: 0
On Forums: 9 years 1 month
Thanks: 1778 time(s)
Russian Federation


Когда-то часть песен была сначала услышана на концерте, потом - на кассете, купленной в 1996 году.
Сразу хочу сказать, что песни в исполнении Рогожина, не нравятся. Остальное - неплохо, кое-что до сих пор используется в качестве цитат ("Он идет к своей волчице" - про коллегу который после запоя возвращается в семью; "У меня такая версия: это радиодиверсия" - если что-то идет не так; "Деньги это бумага" - когда пилят за то, что купил какую-нибудь ненужную хрень").
П.с. Стиль, кстати, надо убрать совсем, или поставить "непонятная хрень", ибо на тот момент у Лени Федорова в голове такой суп Бурдэ варился, что "мама не горюй" (IMG:style_emoticons/default/1488.gif)


Thanks:
Go to the top of the page
  Insert nick Quick quote
+Quote Post

Reply to this topicStart new topic
2 User(s) are reading this topic (2 Guests and 0 Anonymous Users)
0 Members:

 



- Lo-Fi Version Support form
Copyrights and abuse reports form
Time is now: 16th July 2018 - 06:01:23