Welcome Guest ( Log In | Register )

> И неформату есть предел.

Рэп/хип-хоп/шансон/поп удаляются. Для них есть свои порталы.

> АукцЫон - В Багдаде все спокойно (1989), Psychedelic Rock/Jazz Rock (D8)
post Feb 7 2018, 11:11:47
Post #1

Правь статус, ####!111
**************
Group: Металариец
Posts: 30,441
Releases: 470
On Forums: 8 years 8 months
Thanks: 23395 time(s)
Russian Federation


(IMG:http://metalarea.org/images/audiocovers/2018_Feb/acov_tid301594_thumb.jpg)

*Artist: АукцЫон
*Album: В Багдаде все спокойно
*Year: 1989
*Genre: Psychedelic Rock/Jazz Rock
*Country: Russian Federation (IMG:http://metalarea.org/forum/style_images/flags/Russian%20Federation.png)
*Format: mp3@CBR320kbps
*Size: 82MB

Tracklist:
01. Путь в Джинистан 04:25
02. Банзай 03:59
03. Водяная дисциплина 05:29
04. Одинокий мужчина 03:50
05. Жертвоприношение 04:38
06. Карлик-Нос 04:58
07. Колдун 04:39
08. Тоска 04:37
******************************
Total playing time: 36:35

(IMG:http://metalarea.org/images/youtube.png)

Technical info
(IMG:http://metalarea.org/images/spectrogram/2018_Feb/0113343b06fccb83b1d6633d85997c9a.png)
Input File: 01. Путь в Джинистан.mp3
Channels : 2
Sample Rate : 44100
Precision : 16-bit
Duration : 00:04:24.78 = 11676754 samples = 19858.4 CDDA sectors
File Size : 10.8M
Bit Rate : 325k
Sample Encoding: MPEG audio (layer I, II or III)
Comments :
Title=Путь в Джинистан
Artist=АукцЫон
Album=В Багдаде все спокойно [2000, MR 00337 CD]
Tracknumber=01
Year=1989
Genre=Avant-garde Rock



Register


Thanks:
Вернуться к началу страницы
  Insert nick Quick quote
+Цитировать сообщение
 
Создать новую тему
Replies (1 - 1)
post Feb 7 2018, 13:05:02
Post #2

Правь статус, ####!111
**************
Group: Металариец
Posts: 30,441
Releases: 470
On Forums: 8 years 8 months
Thanks: 23395 time(s)
Russian Federation


@320

Register


Thanks:
(1) marilin,
Вернуться к началу страницы
  Insert nick Quick quote
+Цитировать сообщение

ОтветитьСоздать новую тему
1 User(s) are reading this topic (1 Guests and 0 Anonymous Users)
0 Members:

 



- Lo-Fi Version Support form
Copyrights and abuse reports form
Time is now: 25th February 2018 - 12:52:36