Welcome Guest ( Log In | Register )

> И неформату есть предел.

Рэп/хип-хоп/шансон/поп удаляются. Для них есть свои порталы.

> Хвост и АукцЫон - Чайник Вина (1992), Psychedelic Rock/Jazz Rock
post Feb 7 2018, 11:29:48
Post #1

Правь статус, ####!111
**************
Group: Металариец
Posts: 30,821
Releases: 477
On Forums: 8 years 11 months
Thanks: 23853 time(s)
Russian Federation


(IMG:http://metalarea.org/images/audiocovers/2018_Feb/acov_tid301595_thumb.jpg)

*Artist: Хвост и АукцЫон
*Album: Чайник Вина
*Year: 1992
*Genre: Psychedelic Rock/Jazz Rock
*Country: Russian Federation (IMG:http://metalarea.org/forum/style_images/flags/Russian%20Federation.png)
*Format: mp3@CBR320kbps
*Size: 86MB

Tracklist:
01. Орландина 04:18
02. И ночь и день 02:15
03. Тайна 02:59
04. Слепой 01:58
05. Дети 02:27
06. Внутри собаки 02:53
07. Конь унес любимого 03:35
08. Чайник вина 03:14
09. Не вижу птиц я 02:26
10. Прощальная 05:01
11. Милая моя 01:42
12. Мы всех лучше 05:39
******************************
Total playing time: 38:27

(IMG:http://metalarea.org/images/youtube.png)

Technical info
(IMG:http://metalarea.org/images/spectrogram/2018_Feb/93709ee0ec64843b2a64f6e98048d444.png)
Input File: 01. Орландина.mp3
Channels : 2
Sample Rate : 44100
Precision : 16-bit
Duration : 00:04:17.96 = 11376036 samples = 19347 CDDA sectors
File Size : 10.4M
Bit Rate : 323k
Sample Encoding: MPEG audio (layer I, II or III)
Comments :
Title=Орландина
Artist=Хвост и АукцЫон
Album=Чайник вина [1995, SNC-5044]
Tracknumber=01
Year=1992
Genre=Avant-garde Rock



Register


Thanks:
(1) Aresson,
Вернуться к началу страницы
  Insert nick Quick quote
+Цитировать сообщение
 
Создать новую тему
Replies (1 - 2)
post Feb 7 2018, 13:05:36
Post #2

Правь статус, ####!111
**************
Group: Металариец
Posts: 30,821
Releases: 477
On Forums: 8 years 11 months
Thanks: 23853 time(s)
Russian Federation


@320

Register
Вернуться к началу страницы
  Insert nick Quick quote
+Цитировать сообщение
post Feb 8 2018, 05:27:31
Post #3

Враг Газпрома
**************
Group: Металариец
Posts: 5,311
Releases: 0
On Forums: 8 years 11 months
Thanks: 1716 time(s)
Russian Federation


Как поэт Хвостенко премного забавен, как исполнитель - бесит своей картавостью и привычкой расставлять какие-то непонятные акценты (IMG:style_emoticons/default/22.gif)
Тем не менее, пластинка имеет свои незыблемые хиты и просто любимые песни: Орландина, Чайник вина. "Конь унес любимого" постоянно приходит в голову при очередном расставании с женщиной (IMG:style_emoticons/default/6.gif)


Thanks:
Вернуться к началу страницы
  Insert nick Quick quote
+Цитировать сообщение

ОтветитьСоздать новую тему
1 User(s) are reading this topic (1 Guests and 0 Anonymous Users)
0 Members:

 



- Lo-Fi Version Support form
Copyrights and abuse reports form
Time is now: 23rd May 2018 - 15:51:23