Welcome Guest ( Log In | Register )

> И неформату есть предел.

Рэп/хип-хоп/шансон/поп удаляются. Для них есть свои порталы.

> Хвост и АукцЫон - Жилец Вершин (1995), Psychedelic Rock/Jazz Rock
post Feb 7 2018, 11:52:34
Post #1

Правь статус, ####!111
**************
Group: Металариец
Posts: 34,734
Releases: 504
On Forums: 9 years 5 months
Thanks: 26760 time(s)
Russian Federation


(IMG:http://metalarea.org/images/audiocovers/2018_Feb/acov_tid301597_thumb.JPG)

*Artist: Хвост и АукцЫон
*Album: Жилец Вершин
*Year: 1995
*Genre: Psychedelic Rock/Jazz Rock
*Country: Russian Federation (IMG:http://metalarea.org/forum/style_images/flags/Russian%20Federation.png)
*Format: mp3@CBR320kbps
*Size: 108MB

Tracklist:
01. Мешок / Бобэоби 03:46
02. Благовест 02:58
03. Иверни, выверни 02:41
04. Три и два 02:16
05. Призраки 04:38
06. Гроб 01:50
07. Утопленники 04:11
08. Могатырь 04:45
09. Кузнечик 02:55
10. Боги I 02:49
11. Чудовище 02:15
12. Боги II 01:51
13. Нега-неголь 07:36
14. Веселое место 01:20
15. Бобэоби 02:59
******************************
Total playing time: 48:50

(IMG:http://metalarea.org/images/youtube.png)

Technical info
(IMG:http://metalarea.org/images/spectrogram/2018_Feb/9ebcce25e0e812fac16aa6cbc48cd81f.png)
Input File: 01. Мешок - Бобэоби.mp3
Channels : 2
Sample Rate : 44100
Precision : 16-bit
Duration : 00:03:45.57 = 9947417 samples = 16917.4 CDDA sectors
File Size : 9.09M
Bit Rate : 322k
Sample Encoding: MPEG audio (layer I, II or III)
Comments :
Title=Мешок / Бобэоби
Artist=Хвост и АукцЫон
Album=Жилец вершин [SNC-5049]
Tracknumber=01
Year=1995
Genre=Avant-garde Rock



Register


Thanks:
(1) Aresson,
Go to the top of the page
  Insert nick Quick quote
+Quote Post
 
Start new topic
Replies (1 - 1)
post Feb 7 2018, 14:12:56
Post #2

Правь статус, ####!111
**************
Group: Металариец
Posts: 34,734
Releases: 504
On Forums: 9 years 5 months
Thanks: 26760 time(s)
Russian Federation


@320

Register


Thanks:
(1) Aresson,
Go to the top of the page
  Insert nick Quick quote
+Quote Post

Reply to this topicStart new topic
1 User(s) are reading this topic (1 Guests and 0 Anonymous Users)
0 Members:

 



- Lo-Fi Version Support form
Copyrights and abuse reports form
Time is now: 21st November 2018 - 19:34:26