Welcome Guest ( Log In | Register )

> И неформату есть предел.

Рэп/хип-хоп/шансон/поп удаляются. Для них есть свои порталы.

> Frank Zappa - Joe's Garage Acts I, II And III (1979), Experimental/Avantgarde Rock (D19)
post Feb 7 2018, 14:25:15
Post #1

Правь статус, ####!111
**************
Group: Металариец
Posts: 30,441
Releases: 470
On Forums: 8 years 8 months
Thanks: 23395 time(s)
Russian Federation


(IMG:http://metalarea.org/images/audiocovers/2018_Feb/acov_tid301604_thumb.jpg)

*Artist: Frank Zappa
*Album: Joe's Garage Acts I, II And III
*Year: 1979
*Genre: Experimental/Avantgarde Rock
*Country: United States (IMG:http://metalarea.org/forum/style_images/flags/United%20States.png)
*Format: mp3@CBR320kbps
*Size: 243MB

Tracklist:
Act I

01. The Central Scrutinizer 03:28
02. Joe's Garage 06:10
03. Catholic Girls 04:26
04. Crew Slut 06:31
05. Fembot in a Wet T-Shirt" 04:45
06. On the Bus 04:19
07. Why Does It Hurt When I Pee? 02:36
08. Lucille Has Messed My Mind Up 05:43
09. Scrutinizer Postlude 01:35

Act II

01. A Token of My Extreme 05:30
02. Stick It Out 04:34
03. Sy Borg – 8:56
04. Dong Work for Yuda 05:03
05. Keep It Greasey 08:22
06. Outside Now 05:50

Act III

01. He Used to Cut the Grass 08:35
02. Packard Goose 11:34
03. Watermelon in Easter Hay 09:09
04. A Little Green Rosetta 08:15
******************************
Total playing time: 1:55:21

(IMG:http://metalarea.org/images/youtube.png)

Technical info
(IMG:http://metalarea.org/images/spectrogram/2018_Feb/d22a4894472198d44b63b8d4c2c73423.png)
Input File: 06 - Act I - On the Bus.mp3
Channels : 2
Sample Rate : 44100
Precision : 16-bit
Duration : 00:04:31.00 = 11950924 samples = 20324.7 CDDA sectors
File Size : 10.8M
Bit Rate : 320k
Sample Encoding: MPEG audio (layer I, II or III)
Comments :
Title=On the Bus
Artist=Frank Zappa
Album=Joe's Garage
Tracknumber=6
Year=1979
Genre=Experimental Rock



Register


Вернуться к началу страницы
  Insert nick Quick quote
+Цитировать сообщение
 
Создать новую тему
Replies (1 - 4)
post Feb 7 2018, 17:44:42
Post #2

Правь статус, ####!111
**************
Group: Металариец
Posts: 30,441
Releases: 470
On Forums: 8 years 8 months
Thanks: 23395 time(s)
Russian Federation


Просто сказочный по красоте альбом. И да, он наиболее сбалансированный у него. Несмотря на внушительную продолжительность, здесь фантастична как музыка, так и вокалы, которые лишены прежней абсурдности, но звучат именно как музыкальный инструмент - очень красиво и гармонично. Великолепнейший релиз. Недаром он один из самых почитаемых у фанатов Заппы и не только!

@320

Register


Вернуться к началу страницы
  Insert nick Quick quote
+Цитировать сообщение
post Feb 7 2018, 21:10:31
Post #3

Правь статус, ####!111
**************
Group: Металариец
Posts: 30,441
Releases: 470
On Forums: 8 years 8 months
Thanks: 23395 time(s)
Russian Federation


Aresson, очень рекомендую!
Вернуться к началу страницы
  Insert nick Quick quote
+Цитировать сообщение
post Feb 7 2018, 21:11:39
Post #4

Мегаманьяк
***********
Group: Металариец
Posts: 1,742
Releases: 1
From: Yaroslavl
On Forums: 1 year 5 months
Thanks: 862 time(s)
Northern Mariana Islands


Артемио правильную музыку заливает
(IMG:style_emoticons/default/smile4.gif)


Thanks:
Вернуться к началу страницы
  Insert nick Quick quote
+Цитировать сообщение
post Feb 7 2018, 21:15:21
Post #5

Правь статус, ####!111
**************
Group: Металариец
Posts: 30,441
Releases: 470
On Forums: 8 years 8 months
Thanks: 23395 time(s)
Russian Federation


ЦИТАТА(Faust_Vulkan_16 @ Feb 8 2018, 00:11:39) *
Артемио правильную музыку заливает
(IMG:style_emoticons/default/smile4.gif)


Дим, ну это единственный экспериментал-авангард-прог, который действительно великолепно воплощен и который я могу слушать без зевоты. Не все у Заппы нравится, но многое просто великолепно. Как композитор он гений с большой буквы, многим прог-металлистам у него учиться и учиться. (IMG:style_emoticons/default/pray.gif)


Thanks:
Вернуться к началу страницы
  Insert nick Quick quote
+Цитировать сообщение

ОтветитьСоздать новую тему
1 User(s) are reading this topic (1 Guests and 0 Anonymous Users)
0 Members:

 



- Lo-Fi Version Support form
Copyrights and abuse reports form
Time is now: 25th February 2018 - 12:41:59