Welcome Guest ( Log In | Register )

> Releases Upload / Добавление релизов

Добавить релиз тут / Click here to add release
Рекомендованные обменники / Recommended file shares

> Black Heaven - Fantasy [demo] (1996), Doom/Death Metal (D8)
post Feb 7 2018, 15:48:09
Post #1

...
**************
Group: Металариец
Posts: 3,194
Releases: 1342
From: МЕЩЁРА
On Forums: 9 years 10 months
Thanks: 38457 time(s)
Russian Federation


(IMG:http://metalarea.org/images/audiocovers/2018_Feb/acov_tid301608_thumb.jpg)

*Artist: Black Heaven
*Album: Fantasy [demo]
*Year: 1996
*Genre: Doom/Death Metal
*Country: Czech Republic (IMG:http://metalarea.org/forum/style_images/flags/Czech%20Republic.png)
*Format: mp3@CBR320kbps
*Size: 87MB

Tracklist:
1. I'm 06:28
2. Fantasy 06:31
3. Dying Love 07:59
4. Cry Of Unborn 04:18
5. Beyond High Mountains 05:29
6. Requiem 07:16
******************************
Total playing time: 38:01

Technical info
(IMG:http://metalarea.org/images/spectrogram/2018_Feb/b9529c770a18b01751f0097e90da587b.png)
Input File: 01.I\'m.mp3
Channels : 2
Sample Rate : 44100
Precision : 16-bit
Duration : 00:06:28.41 = 17128661 samples = 29130.4 CDDA sectors
File Size : 15.5M
Bit Rate : 320k
Sample Encoding: MPEG audio (layer I, II or III)
Comments :
Title=I'm
Artist=Black Heaven
Album=Fantasy
Tracknumber=01
Year=1996
Genre=Doom/Death Metal



Register


Вернуться к началу страницы
  Insert nick Quick quote
+Цитировать сообщение
 
Создать новую тему
Replies (1 - 1)
post Feb 14 2018, 18:59:17
Post #2

Group: Дух
Posts: 4
Releases: 0
On Forums: 9 years 10 months
Thanks: 7 time(s)
Czech Republic


excellent doom metal band from my town and one of the best demos I've ever heard! I bought 2 copies of the original tape 20 years ago, just in case. (IMG:style_emoticons/default/smile1.gif) and listened to them countless times.
thanks for posting! (IMG:style_emoticons/default/9.gif)

all of a sudden it has appeared on YT:
Вернуться к началу страницы
  Insert nick Quick quote
+Цитировать сообщение

ОтветитьСоздать новую тему
2 User(s) are reading this topic (2 Guests and 0 Anonymous Users)
0 Members:

 



- Lo-Fi Version Support form
Copyrights and abuse reports form
Time is now: 21st February 2018 - 21:58:38