Welcome Guest ( Log In | Register )

> И неформату есть предел.

Рэп/хип-хоп/шансон/поп удаляются. Для них есть свои порталы.

 
ОтветитьСоздать новую тему
> Fire From The Gods - Narrative Retold (2017), Alternative Metal/Rapcore/Metalcore
post Feb 7 2018, 20:48:20
Post #1

Два Литра
**
Group: Завсегдатай
Posts: 181
Releases: 16
On Forums: 11 years 1 month
Thanks: 507 time(s)
Lithuania


(IMG:https://metalarea.org/images/audiocovers/2018_Feb/acov_tid301617_thumb.jpg)

*Artist: Fire From The Gods
*Album: Narrative Retold
*Year: 2017
*Genre: Alternative Metal/Rapcore/Metalcore
*Country: United States (IMG:https://metalarea.org/forum/style_images/flags/United%20States.png)
*Format: mp3@CBR320kbps
*Size: 116MB

Tracklist:
01. The Voiceless 3:27
02. The Taste 3:57
03. Public Enemy 3:38
04. End Transmission 3:40
05. Excuse Me 4:05
06. Composition 3:58
07. Evolve 3:32
08. Pretenders (Single Version) 4:47
09. Diversion 3:05
10. In Spite of Doubt 3:51
11. Lifeline 4:18
12. Into the Blue 4:05
13. Excuse Me (Acoustic) 4:05
******************************
Total playing time: 50:28

Extended info




Technical info
(IMG:https://metalarea.org/images/spectrogram/2018_Feb/64a201eee4b21833f2f810c654126c4f.png)
Input File: 01. The Voiceless.mp3
Channels : 2
Sample Rate : 44100
Precision : 16-bit
Duration : 00:03:26.77 = 9118469 samples = 15507.6 CDDA sectors
File Size : 8.34M
Bit Rate : 323k
Sample Encoding: MPEG audio (layer I, II or III)
Comments :
Title=The Voiceless
Artist=Fire from the Gods
Album=Narrative Retold
Tracknumber=01/13
Year=2017
Genre=Alt. Metal / Rapcore



Register
Вернуться к началу страницы
  Insert nick Quick quote
+Цитировать сообщение

ОтветитьСоздать новую тему
2 User(s) are reading this topic (2 Guests and 0 Anonymous Users)
0 Members:

 



- Lo-Fi Version Support form
Copyrights and abuse reports form
Time is now: 17th February 2018 - 23:52:44