Welcome Guest ( Log In | Register )

> И неформату есть предел.

Рэп/хип-хоп/шансон/поп удаляются. Для них есть свои порталы.

 
ОтветитьСоздать новую тему
> Ocean Grove - The Rhapsody Tapes (2017), Nu Metal/Nu Metalcore/Post Hardcore
post Feb 7 2018, 21:11:22
Post #1

Два Литра
**
Group: Завсегдатай
Posts: 181
Releases: 16
On Forums: 11 years 1 month
Thanks: 507 time(s)
Lithuania


(IMG:https://metalarea.org/images/audiocovers/2018_Feb/acov_tid301619_thumb.jpg)

*Artist: Ocean Grove
*Album: The Rhapsody Tapes
*Year: 2017
*Genre: Nu Metal/Nu Metalcore/Post Hardcore
*Country: Australia (IMG:https://metalarea.org/forum/style_images/flags/Australia.png)
*Format: mp3@CBR320kbps
*Size: 86MB

Tracklist:
01. What I Love About a Natural Woman 1:21
02. Beers 2:51
03. Thunderdome (feat. Running Touch) 3:44
04. Intimate Alien 3:32
05. The Wrong Way 3:44
06. Slow Soap Soak 1:51
07. These Boys Light Fires 3:22
08. When You're This High You Can Say What You Like 3:28
09. Mr. Centipede 4:20
10. From Dalight 2:02
11. Stratosphere Love 4:13
12. Hitachi 2:49
******************************
Total playing time: 37:17

Extended info




Technical info
(IMG:https://metalarea.org/images/spectrogram/2018_Feb/f28e516624ddc2ee1d6f0dcf4bad2e11.png)
Input File: 01. What I Love About a Natural Woman.mp3
Channels : 2
Sample Rate : 44100
Precision : 16-bit
Duration : 00:01:21.07 = 3575099 samples = 6080.1 CDDA sectors
File Size : 3.30M
Bit Rate : 326k
Sample Encoding: MPEG audio (layer I, II or III)
Comments :
Title=What I Love About a Natural Woman
Artist=Ocean Grove
Album=The Rhapsody Tapes
Tracknumber=01/12
Year=2017
Genre=Hardcore / Rapcore



Register
Вернуться к началу страницы
  Insert nick Quick quote
+Цитировать сообщение

ОтветитьСоздать новую тему
2 User(s) are reading this topic (2 Guests and 0 Anonymous Users)
0 Members:

 



- Lo-Fi Version Support form
Copyrights and abuse reports form
Time is now: 25th February 2018 - 12:50:59