Welcome Guest ( Log In | Register )

> Massacrator - Battle Rages On [ep] (2018), Old School Thrash/Death Metal
post Feb 8 2018, 05:49:18
Post #1

Правь статус, ####!111
**************
Group: Металариец
Posts: 13,324
Releases: 9404
From: Г.Харьков
On Forums: 6 years 1 month
Thanks: 153478 time(s)
Unknown


(IMG:https://metalarea.org/images/audiocovers/2018_Feb/acov_tid301628_thumb.jpg)

*Artist: Massacrator
*Album: Battle Rages On [ep]
*Year: 2018
*Genre: Old School Thrash/Death Metal
*Country: Mexico (IMG:https://metalarea.org/forum/style_images/flags/Mexico.png)
*Format: mp3@CBR320kbps
*Size: 46MB

Tracklist:
1. Battlefield (Album Version) 05:05
2. Human Timebomb (Album Version) 05:53
3. El Desmadre (Brujeria cover) 02:12
4. Subtraction (Sepultura cover) 04:58
******************************
Total playing time: 18:08




Extended info
Martin Bass
Julio Drums
See also: Betrayer God, Disgraced
Beto Guitars
See also: Toxic Rain
Victor Guitars
See also: Toxic Rain
Cristian Vocals


Technical info
(IMG:https://metalarea.org/images/spectrogram/2018_Feb/ab0d185e23ec0c6107df03d7fb0a5399.png)
Input File: Massacrator - Battle Rages On - 02 Human Timebomb (Album Version).mp3
Channels : 2
Sample Rate : 44100
Precision : 16-bit
Duration : 00:05:53.34 = 15582250 samples = 26500.4 CDDA sectors
File Size : 14.3M
Bit Rate : 325k
Sample Encoding: MPEG audio (layer I, II or III)
Comments :
Title=Human Timebomb (Album Version)
Artist=Massacrator
Album=Battle Rages On
Tracknumber=2
Year=2018



Register


Go to the top of the page
  Insert nick Quick quote
+Quote Post
 
Start new topic
Replies (1 - 5)
post Feb 12 2018, 14:23:28
Post #2

Четыре Литра
****
Group: Металариец
Posts: 390
Releases: 3
From: Екатеринбург
On Forums: 8 years 1 month
Thanks: 46 time(s)
Russian Federation


Охренительно (IMG:style_emoticons/default/metaler.gif)
Go to the top of the page
  Insert nick Quick quote
+Quote Post
post Feb 12 2018, 16:02:55
Post #3

_ - = # Thrashogolic # = - _ ... а давайте поржём все вместе
**************
Group: Металариец
Posts: 20,848
Releases: 4444
From: 404
On Forums: 8 years 1 day
Thanks: 27004 time(s)
Ukraine


ЦИТАТА(bandcamp page info)
This is an EP containing two album version tunes from the first album, "Everlasting Nightmare" and two cover versions from a pair of our biggest influences: Brujeria & Sepultura. The four songs are available for free download and only 50 hand numbered copies were made of this release. Again; this is a totally DIY material.

Massacrator - Everlasting Nightmare (2016)


Thanks:
Go to the top of the page
  Insert nick Quick quote
+Quote Post
post Feb 12 2018, 16:25:15
Post #4

Правь статус, ####!111
**************
Group: Металариец
Posts: 2,872
Releases: 10
From: South Of Heaven
On Forums: 7 years 8 months
Thanks: 2365 time(s)
Russian Federation




Go to the top of the page
  Insert nick Quick quote
+Quote Post
post Feb 14 2018, 19:32:28
Post #5

brutalcesar
**************
Group: Металариец
Posts: 17,520
Releases: 67
From: Рязань
On Forums: 9 years 4 months
Thanks: 8666 time(s)
Russian Federation


Суховаты каверки...
Go to the top of the page
  Insert nick Quick quote
+Quote Post
post Feb 15 2018, 00:44:46
Post #6

Group: Подсевший
Posts: 23
Releases: 0
From: Београд, Србија
On Forums: 9 years 2 months
Thanks: 4 time(s)
Serbia


Одлично, хвала!
Go to the top of the page
  Insert nick Quick quote
+Quote Post

Reply to this topicStart new topic
2 User(s) are reading this topic (2 Guests and 0 Anonymous Users)
0 Members:

 



- Lo-Fi Version Support form
Copyrights and abuse reports form
Time is now: 17th June 2018 - 22:51:29