Welcome Guest ( Log In | Register )

> И неформату есть предел.

Рэп/хип-хоп/шансон/поп удаляются. Для них есть свои порталы.

> Voodoo Circle - Raised On Rock (2018), Melodic Heavy Metal/Hard Rock (D5)
post Feb 8 2018, 12:11:22
Post #1

Аннигилятор пивА
Group Icon
Group: V.I.P
Posts: 47,282
Releases: 14225
From: Koenigsberg - TILZIT
On Forums: 12 years 1 month
Thanks: 315527 time(s)
Russian Federation


(IMG:https://metalarea.org/images/audiocovers/2018_Feb/acov_tid301648_thumb.jpg)

*Artist: Voodoo Circle
*Album: Raised On Rock
*Year: 2018
*Genre: Melodic Heavy Metal/Hard Rock
*Country: Germany (IMG:https://metalarea.org/forum/style_images/flags/Germany.png)
*Format: mp3@CBR320kbps
*Size: 141MB

Tracklist:
01. Running Away From Love
02. Higher Love
03. Walk On The Line
04. You Promised Me Heaven
05. Just Take My Heart
06. Where Is The World We Love
07. Ultimate Sin
08. Chase Me Away
09. Unknown Stranger
10. Dreamchaser
11. Love Is An Ocean
12. Time For The Innocent (Digipak Bonus)
13. There's More To See (Digipak Bonus)
******************************
Total playing time: 1:00:38



Extended info
Насчет форматности сами смотрите, часть трэков чисто по харду, часть по классическому хэви или харднхэви, в любом случае поклонниками классики этих направлений 70х-80х рекомендуется.
Alex Beyrodt (Guitars)
Herbie Langhans (Vocals)
Mat Sinner (Bass)
Francesco „Cesco“ Jovino (Drums)



Technical info
(IMG:https://metalarea.org/images/spectrogram/2018_Feb/3e969882fe529b21d0b2b62e071a1738.png)
Input File: 02 Higher Love.mp3
Channels : 2
Sample Rate : 44100
Precision : 16-bit
Duration : 00:04:08.37 = 10953073 samples = 18627.7 CDDA sectors
File Size : 9.94M
Bit Rate : 320k
Sample Encoding: MPEG audio (layer I, II or III)
Comments :
Title=Higher Love
Artist=Voodoo Circle
Album=Raised on Rock
Tracknumber=2
Year=2018
Discnumber=1



Register


MIRROR
Register


Thanks:
Go to the top of the page
  Insert nick Quick quote
+Quote Post
 
Start new topic
Replies (1 - 1)
post Feb 8 2018, 12:18:20
Post #2
BAN
Banned till
Aug 5 2018, 14:02:28



@320

Register


Go to the top of the page
  Insert nick Quick quote
+Quote Post

Reply to this topicStart new topic
2 User(s) are reading this topic (2 Guests and 0 Anonymous Users)
0 Members:

 



- Lo-Fi Version Support form
Copyrights and abuse reports form
Time is now: 16th July 2018 - 05:56:10