Welcome Guest ( Log In | Register )

> Paara - Riitti (2018), Black Metal
post Feb 8 2018, 13:15:14
Post #1

Serial Uploader
Group Icon
Group: V.I.P
Posts: 33,290
Releases: 31565
From: Lithuania
On Forums: 10 years 5 months
Thanks: 360604 time(s)
Lithuania


(IMG:https://metalarea.org/images/audiocovers/2018_Feb/acov_tid301658_thumb.jpg)

*Artist: Paara
*Album: Riitti
*Year: 2018
*Genre: Black Metal
*Country: Finland (IMG:https://metalarea.org/forum/style_images/flags/Finland.png)
*Format: mp3@CBR320kbps
*Size: 96MB

Tracklist:
01. Viimeinen Virta
02. Hurmeen Hauta
03. Suon Sydän
04. Kuiskaus Pimeästä
******************************
Total playing time: 41:49


Preview 2

Technical info
(IMG:https://metalarea.org/images/spectrogram/2018_Feb/2bd4e51afb0d371f1f5dbb34e2222845.png)
Input File: 02. Hurmeen hauta.mp3
Channels : 2
Sample Rate : 44100
Precision : 16-bit
Duration : 00:06:46.27 = 17916551 samples = 30470.3 CDDA sectors
File Size : 16.3M
Bit Rate : 322k
Sample Encoding: MPEG audio (layer I, II or III)
Comments :
Title=Hurmeen hauta
Artist=Paara
Album=Riitti
Tracknumber=2/4
Year=2018
Genre=9
Discnumber=1/1



Register


Go to the top of the page
  Insert nick Quick quote
+Quote Post
 
Start new topic
Replies (1 - 6)
post Feb 8 2018, 13:38:00
Post #2

Правь статус, ####!111
**************
Group: Металариец
Posts: 34,584
Releases: 504
On Forums: 9 years 5 months
Thanks: 26695 time(s)
Russian Federation


@320

Register


Go to the top of the page
  Insert nick Quick quote
+Quote Post
post Feb 8 2018, 16:05:20
Post #3

Девять Литров
*********
Group: Металариец
Posts: 986
Releases: 37
From: великий город Питер
On Forums: 12 years 11 months
Thanks: 1797 time(s)
Russian Federation


http://vicisolumrecords.com/album/riitti


Thanks:
(3) MMMMM, Sanc, ShmiT,
Go to the top of the page
  Insert nick Quick quote
+Quote Post
post Feb 8 2018, 16:05:26
Post #4

Каратель
****
Group: Металариец
Posts: 386
Releases: 0
From: Przemysl
On Forums: 3 years 10 months
Thanks: 288 time(s)
Poland


http://bandcamp.com


Thanks:
(1) Sanc,
Go to the top of the page
  Insert nick Quick quote
+Quote Post
post Feb 8 2018, 19:01:38
Post #5

Мегаманьяк
***********
Group: Металариец
Posts: 1,612
Releases: 0
From: Dnipro
On Forums: 10 years 4 months
Thanks: 424 time(s)
Ukraine


melodic black metal


Thanks:
(1) Glioma,
Go to the top of the page
  Insert nick Quick quote
+Quote Post
post Nov 10 2018, 21:55:04
Post #6

Семь Литров
*******
Group: Металариец
Posts: 728
Releases: 0
On Forums: 9 years 8 months
Thanks: 7 time(s)
Netherlands


Anybody got a working link, please?
Go to the top of the page
  Insert nick Quick quote
+Quote Post
post Nov 11 2018, 09:41:06
Post #7

Forever Underground
**************
Group: Металариец
Posts: 5,065
Releases: 0
On Forums: 3 years 7 months
Thanks: 4611 time(s)
Unknown


From the web, @320:
Register


Thanks:
(1) Skeksis,
Go to the top of the page
  Insert nick Quick quote
+Quote Post

Reply to this topicStart new topic
2 User(s) are reading this topic (2 Guests and 0 Anonymous Users)
0 Members:

 



- Lo-Fi Version Support form
Copyrights and abuse reports form
Time is now: 17th November 2018 - 22:18:07