Welcome Guest ( Log In | Register )

> И неформату есть предел.

Рэп/хип-хоп/шансон/поп удаляются. Для них есть свои порталы.

> Крематорий - Кома (1988), Rock
post Feb 8 2018, 13:34:45
Post #1

Правь статус, ####!111
**************
Group: Металариец
Posts: 30,441
Releases: 470
On Forums: 8 years 8 months
Thanks: 23395 time(s)
Russian Federation


(IMG:http://metalarea.org/images/audiocovers/2018_Feb/acov_tid301663_thumb.jpg)

*Artist: Крематорий
*Album: Кома
*Year: 1988
*Genre: Rock
*Country: Russian Federation (IMG:http://metalarea.org/forum/style_images/flags/Russian%20Federation.png)
*Format: mp3@CBR320kbps
*Size: 109MB

Tracklist:
01. Introduction (Кома) 0:29
02. Реанимационная Машина 04:38
03. Безобразная Эльза 02:58
04. Африка 03:30
05. Клаустрофобия 05:32
06. Хабибулин 03:32
07. Кондратий 01:25
08. Моя Деревня (Хит-Парад '88) 02:34)
09. Мусорный Ветер 03:06
10. Гимн Мёртвым 03:00
11. Пир Белых Мумий 04:18
12. Гончие Псы 03:33
13. Харе Рама 03:25
14. El Final De La Vida 0:38
15. Feast Of White Mummies [Bonus Track] 04:10
******************************
Total playing time: 46:48

(IMG:http://metalarea.org/images/youtube.png)

Technical info
(IMG:http://metalarea.org/images/spectrogram/2018_Feb/86c9aec0c97a3f14536322db93492a95.png)
Input File: 03 - Безобразная Эльза.mp3
Channels : 2
Sample Rate : 44100
Precision : 16-bit
Duration : 00:02:58.20 = 7858664 samples = 13365.1 CDDA sectors
File Size : 7.13M
Bit Rate : 320k
Sample Encoding: MPEG audio (layer I, II or III)
Comments :
Title=Áåçîáðàçíàÿ Ýëüçà
Artist=Êðåìàòîðèé
Album="Êîìà (Moroz, 1998)"
Tracknumber=03
Year=1988



Register


Thanks:
Вернуться к началу страницы
  Insert nick Quick quote
+Цитировать сообщение
 
Создать новую тему
Replies (1 - 6)
post Feb 8 2018, 13:54:24
Post #2

Правь статус, ####!111
**************
Group: Металариец
Posts: 30,441
Releases: 470
On Forums: 8 years 8 months
Thanks: 23395 time(s)
Russian Federation


Одна из лучших пластинок нашего рока. (IMG:style_emoticons/default/pray.gif)

@320

Register
Вернуться к началу страницы
  Insert nick Quick quote
+Цитировать сообщение
post Feb 8 2018, 14:53:44
Post #3

Правь статус, ####!111
**************
Group: Металариец
Posts: 30,441
Releases: 470
On Forums: 8 years 8 months
Thanks: 23395 time(s)
Russian Federation


Хабибулин сегодня звучал громко на улице, было неожиданно (IMG:style_emoticons/default/headcrab.png)
Вернуться к началу страницы
  Insert nick Quick quote
+Цитировать сообщение
post Feb 8 2018, 20:29:11
Post #4

Heavy metal to the world (c)
**************
Group: Металариец
Posts: 3,353
Releases: 1
From: Питер
On Forums: 11 years 3 days
Thanks: 1297 time(s)
Russian Federation


Запоминающаяся вещь. Не слушал больше 10 лет, а поди ж всё равно все песни до единой напеть могу, а некоторые целыми куплетами


Thanks:
Вернуться к началу страницы
  Insert nick Quick quote
+Цитировать сообщение
post Feb 8 2018, 20:31:22
Post #5

Правь статус, ####!111
**************
Group: Металариец
Posts: 30,441
Releases: 470
On Forums: 8 years 8 months
Thanks: 23395 time(s)
Russian Federation


Я сегодня шел напевая Мусорный Ветер (IMG:style_emoticons/default/20.gif)
Вернуться к началу страницы
  Insert nick Quick quote
+Цитировать сообщение
post Feb 11 2018, 09:29:58
Post #6

Два Литра
**
Group: Завсегдатай
Posts: 198
Releases: 0
From: Moscow
On Forums: 10 years 1 month
Thanks: 15 time(s)
Russian Federation


Прекрасно, просто прекрасно


Thanks:
Вернуться к началу страницы
  Insert nick Quick quote
+Цитировать сообщение
post Feb 13 2018, 20:09:47
Post #7

Правь статус, ####!111
**************
Group: Металариец
Posts: 30,441
Releases: 470
On Forums: 8 years 8 months
Thanks: 23395 time(s)
Russian Federation


ЦИТАТА(Amadeus @ Feb 11 2018, 12:29:58) *
Прекрасно, просто прекрасно


Подавляющее количество Крематория - да!
Вернуться к началу страницы
  Insert nick Quick quote
+Цитировать сообщение

ОтветитьСоздать новую тему
2 User(s) are reading this topic (2 Guests and 0 Anonymous Users)
0 Members:

 



- Lo-Fi Version Support form
Copyrights and abuse reports form
Time is now: 25th February 2018 - 12:47:29