Welcome Guest ( Log In | Register )

> И неформату есть предел.

Рэп/хип-хоп/шансон/поп удаляются. Для них есть свои порталы.

> Король И Шут - Бунт На Корабле (2004), Punk Rock (D5)
post Feb 8 2018, 22:41:21
Post #1

Правь статус, ####!111
**************
Group: Металариец
Posts: 30,821
Releases: 477
On Forums: 8 years 11 months
Thanks: 23853 time(s)
Russian Federation


(IMG:http://metalarea.org/images/audiocovers/2018_Feb/acov_tid301682_thumb.jpg)

*Artist: Король И Шут
*Album: Бунт На Корабле
*Year: 2004
*Genre: Punk Rock
*Country: Russian Federation (IMG:http://metalarea.org/forum/style_images/flags/Russian%20Federation.png)
*Format: mp3@CBR320kbps
*Size: 86MB

Tracklist:
01. Хардкор по-русски
02. Волшебный глаз старика Алонса
03. Исповедь вампира
04. Месть Гарри
05. Северный флот
06. Идол
07. Бунт на корабле!
08. Хороший пират - Мертвый пират
09. Рыцарь
10. Звонок
11. Инквизитор
12. Задира и солдат
13. Раненый воин
14. Муха - маленькая птичка
15. Хозяин леса
******************************
Total playing time: 39:35

(IMG:http://metalarea.org/images/youtube.png)

Technical info
(IMG:http://metalarea.org/images/spectrogram/2018_Feb/dc1b73659dd26833a5303215da27c68d.png)
Input File: 01. Хардкор по-русски.mp3
Channels : 2
Sample Rate : 44100
Precision : 16-bit
Duration : 00:02:52.98 = 7628242 samples = 12973.2 CDDA sectors
File Size : 6.92M
Bit Rate : 320k
Sample Encoding: MPEG audio (layer I, II or III)
Comments :
Title=Хардкор по-русски
Artist=Король и Шут
Album=Бунт на корабле (2004, Мистерия Звука)
Tracknumber=01/15
Year=2004
Genre=Punk Rock



Register


Вернуться к началу страницы
  Insert nick Quick quote
+Цитировать сообщение
 
Создать новую тему
Replies (30 - 26)

ОтветитьСоздать новую тему
1 User(s) are reading this topic (1 Guests and 0 Anonymous Users)
0 Members:

 



- Lo-Fi Version Support form
Copyrights and abuse reports form
Time is now: 23rd May 2018 - 15:55:48